<?xml version="1.0" standalone="no"?>
<!DOCTYPE svg PUBLIC "-//W3C//DTD SVG 1.1//EN" "http://www.w3.org/Graphics/SVG/1.1/DTD/svg11.dtd" >
<svg xmlns="http://www.w3.org/2000/svg">
<metadata></metadata>
<defs>
<font id="merriweather_sansbookitalic" horiz-adv-x="0" >
<font-face units-per-em="2048" ascent="1638" descent="-410" />
<missing-glyph horiz-adv-x="485" />
<glyph unicode="&#xfb01;" horiz-adv-x="1258" d="M152 1021l22 118l146 1l18 124q25 189 129 301.5t271 112.5q93 0 151 -26l-38 -121q-47 32 -132 31q-91 -1 -153 -75t-76 -185l-21 -162h243l-9 -119h-250l-138 -1021h-148l137 1021h-152zM828 0l154 1144h149l-155 -1144h-148zM1012 1525q2 48 35 81.5t76 33.5 q44 0 69 -26.5t23 -67.5q-3 -50 -37 -85t-80 -35q-39 0 -64 28.5t-22 70.5z" />
<glyph unicode="&#xfb02;" horiz-adv-x="1258" d="M152 1021l22 118l146 1l18 124q25 189 129 301.5t271 112.5q93 0 151 -26l-38 -121q-47 32 -132 31q-91 -1 -153 -75t-76 -185l-21 -162h243l-9 -119h-250l-138 -1021h-148l137 1021h-152zM828 3l223 1634h148l-222 -1634h-149z" />
<glyph unicode="&#xfb03;" horiz-adv-x="1953" d="M152 1021l22 118l146 1l18 124q25 189 129 301.5t271 112.5q93 0 151 -26l-38 -121q-47 32 -132 31q-91 -1 -153 -75t-76 -185l-21 -162h243l-9 -119h-250l-138 -1021h-148l137 1021h-152zM847 1021l22 118l146 1l18 124q25 189 129 301.5t271 112.5q93 0 151 -26 l-38 -121q-47 32 -132 31q-91 -1 -153 -75t-76 -185l-21 -162h243l-9 -119h-250l-138 -1021h-148l137 1021h-152zM1522 0l154 1144h149l-155 -1144h-148zM1706 1525q2 48 35 81.5t76 33.5q44 0 69 -26.5t23 -67.5q-3 -50 -37 -85t-80 -35q-39 0 -64 28.5t-22 70.5z" />
<glyph unicode="&#xfb04;" horiz-adv-x="1953" d="M152 1021l22 118l146 1l18 124q25 189 129 301.5t271 112.5q93 0 151 -26l-38 -121q-47 32 -132 31q-91 -1 -153 -75t-76 -185l-21 -162h243l-9 -119h-250l-138 -1021h-148l137 1021h-152zM847 1021l22 118l146 1l18 124q25 189 129 301.5t271 112.5q93 0 151 -26 l-38 -121q-47 32 -132 31q-91 -1 -153 -75t-76 -185l-21 -162h243l-9 -119h-250l-138 -1021h-148l137 1021h-152zM1522 3l223 1634h148l-222 -1634h-149z" />
<glyph horiz-adv-x="2048" />
<glyph horiz-adv-x="2048" />
<glyph unicode="&#xd;" horiz-adv-x="2048" />
<glyph />
<glyph />
<glyph />
<glyph />
<glyph />
<glyph />
<glyph />
<glyph />
<glyph unicode="&#x9;" />
<glyph unicode="&#xa;" />
<glyph />
<glyph />
<glyph />
<glyph />
<glyph />
<glyph />
<glyph />
<glyph />
<glyph />
<glyph />
<glyph />
<glyph />
<glyph unicode=" "  horiz-adv-x="485" />
<glyph unicode="&#x09;" horiz-adv-x="485" />
<glyph unicode="&#xa0;" horiz-adv-x="485" />
<glyph unicode="!" horiz-adv-x="621" d="M132 85q7 51 46 84.5t89 33.5q52 0 74 -28t16 -74q-8 -55 -46 -86.5t-90 -31.5q-43 0 -69 27t-20 75zM236 488l163 1290h172l-215 -1290h-120z" />
<glyph unicode="&#x22;" horiz-adv-x="1003" d="M240 966l88 721h174l-154 -721h-108zM719 966l88 721h174l-154 -721h-108z" />
<glyph unicode="#" horiz-adv-x="1393" d="M112 365l6 98h224l72 463h-222l6 98h232l53 333h126l-51 -333h388l56 333h127l-55 -333h233l-6 -98h-242l-74 -463h230l-6 -98h-239l-57 -365h-123l53 365h-390l-62 -365h-124l59 365h-214zM469 463h389l72 463h-388z" />
<glyph unicode="$" horiz-adv-x="1204" d="M128 68l42 123q30 -33 131.5 -63.5t204.5 -30.5q96 0 175 28t131 92.5t52 156.5q0 99 -58.5 173.5t-184.5 155.5q-42 27 -66 43.5t-63.5 46.5t-64 54t-54 60t-46 71t-28.5 79.5t-13 92.5q-4 172 110 276t299 117l30 186h137l-30 -188q164 -14 258 -80l-48 -115 q-41 40 -121.5 62t-166.5 22q-41 0 -80 -5.5t-83 -22t-76.5 -42t-54.5 -70t-23 -101.5q-1 -38 5.5 -72t16.5 -60.5t32.5 -54.5t40 -46.5t53 -45.5t58 -42l67.5 -45q55 -36 87.5 -59t80 -65.5t74 -80.5t47 -92.5t21.5 -114.5q2 -126 -55 -220t-156 -145t-231 -63l-35 -213 h-137l34 212q-103 7 -191.5 33t-120.5 53z" />
<glyph unicode="%" horiz-adv-x="1911" d="M201 1055q0 79 31 155.5t84 136.5t130.5 96.5t164.5 36.5q142 0 211 -79.5t69 -215.5q0 -111 -48.5 -210.5t-144 -164.5t-216.5 -65q-133 0 -207 86.5t-74 223.5zM324 1056q0 -97 47.5 -157t132.5 -60q61 0 111.5 33.5t81 85t47.5 109.5t17 112q0 96 -44 151.5t-127 55.5 q-79 0 -142 -54t-93.5 -128t-30.5 -148zM414 0l947 1530h123l-947 -1530h-123zM1037 374q0 79 31 155.5t84 136.5t130.5 96.5t164.5 36.5q142 0 211 -79.5t69 -215.5q0 -111 -48.5 -210.5t-144 -164.5t-216.5 -65q-133 0 -207 86.5t-74 223.5zM1160 375q0 -97 47.5 -157 t132.5 -60q61 0 111.5 33.5t81 85t47.5 109.5t17 112q0 96 -44 151.5t-127 55.5q-79 0 -142 -54t-93.5 -128t-30.5 -148z" />
<glyph unicode="&#x26;" horiz-adv-x="1534" d="M105 365q0 69 25.5 129t75.5 110t103 87.5t128 79.5q-40 86 -67 186t-27 180q0 180 115.5 295t295.5 115q82 0 148.5 -28t106.5 -72.5t61.5 -96.5t21.5 -105q0 -71 -28 -135t-63 -107t-106 -93.5t-115 -75.5t-132 -72q-29 -15 -43 -23q186 -323 394 -516q131 125 131 330 q0 76 -24 141q-85 -2 -122 -22l9 105q29 29 136 29q17 0 158 -0.5t156 -0.5l-8 -111h-181q14 -49 14 -108q0 -280 -174 -441q102 -65 255 -62q32 -2 54 4l-15 -93q-58 -14 -146 -14q-66 0 -138 21.5t-125 62.5q-151 -81 -357 -81q-105 0 -194.5 21t-163.5 65t-116.5 119.5 t-42.5 176.5zM260 369q0 -94 52.5 -158.5t134.5 -92t188 -27.5q141 0 254 55q-131 125 -217.5 244.5t-181.5 283.5q-110 -68 -170 -139.5t-60 -165.5zM480 1141q0 -158 74 -308q56 30 86.5 46t79.5 45.5t76 50.5t61 52.5t51 60.5t29.5 65.5t12.5 75.5q0 95 -50.5 155.5 t-150.5 60.5q-120 0 -194.5 -87.5t-74.5 -216.5z" />
<glyph unicode="'" horiz-adv-x="524" d="M240 966l88 721h174l-154 -721h-108z" />
<glyph unicode="(" horiz-adv-x="854" d="M221 505q0 103 15 219q22 163 84 321t135.5 271.5t155.5 208.5t140.5 146t93.5 70l67 -46q-32 -20 -80 -67t-114 -133t-126.5 -189t-114.5 -248t-79 -297q-18 -136 -18 -251q0 -128 21 -246.5t52 -203t70.5 -155.5t72 -112t61.5 -64l-82 -48h-14q-22 15 -51 43.5 t-69.5 77.5t-77.5 118.5t-70 153.5t-52.5 196.5t-19.5 234.5z" />
<glyph unicode=")" horiz-adv-x="854" d="M-48 -267q32 20 80 67t114 133t126.5 189t114.5 248t79 297q18 136 18 251q0 128 -21 246.5t-52 203t-70.5 155.5t-72 112t-61.5 64l82 48h14q22 -15 51 -43.5t69.5 -77.5t77.5 -118.5t70 -153.5t52.5 -196.5t19.5 -234.5q0 -103 -15 -219q-22 -163 -84 -321 t-135.5 -271.5t-155.5 -208.5t-140.5 -146t-93.5 -70z" />
<glyph unicode="*" horiz-adv-x="1366" d="M240 960l286 130l146 57l-134 58l-260 139l87 127l233 -176l109 -95l-6 150l7 303h148l-51 -303l-37 -150l129 95l267 172l59 -128l-284 -135l-145 -58l129 -58l254 -135l-88 -126l-227 172l-105 97l9 -146l-7 -303l-151 1l52 302l36 146l-128 -95l-269 -170z" />
<glyph unicode="+" horiz-adv-x="1366" d="M243 712l14 121h226l158 -9l17 181l27 230h136l-26 -230l-30 -180l135 8h255l-14 -121h-256l-131 5q-1 -24 -7.5 -98.5t-7.5 -82.5l-29 -241h-138l29 241l28 181l-161 -5h-225z" />
<glyph unicode="," horiz-adv-x="503" d="M-22 -434l2 18q87 43 145.5 131.5t58.5 203.5q0 76 -26.5 132.5t-67.5 75.5l6 41l79 97q47 -21 81.5 -56t52.5 -76.5t26 -81.5t8 -82q0 -165 -85 -290.5t-225 -179.5z" />
<glyph unicode="-" horiz-adv-x="1266" d="M220 712l14 121h837l-14 -121h-837z" />
<glyph unicode="." horiz-adv-x="503" d="M101 75q1 54 34.5 91t86.5 37q46 0 68 -25t21 -67q-1 -62 -33.5 -95t-87.5 -33q-39 0 -64.5 25t-24.5 67z" />
<glyph unicode="/" horiz-adv-x="854" d="M-75 -362l862 1959h133l-863 -1959h-132z" />
<glyph unicode="0" horiz-adv-x="1278" d="M111 453q0 148 50 279.5t134.5 224t199 146t239.5 53.5q111 0 194 -35t132 -99.5t73 -147.5t24 -186q0 -187 -79.5 -348t-222.5 -258.5t-316 -97.5q-109 0 -193.5 38.5t-134.5 105t-75 148.5t-25 177zM268 464q0 -77 17.5 -143t52.5 -118t92.5 -82t131.5 -30 q84 0 156 33.5t123 90.5t87 132t53.5 158.5t17.5 169.5q0 371 -278 375q-90 1 -166.5 -34t-128.5 -94t-88.5 -136.5t-53 -159t-16.5 -162.5z" />
<glyph unicode="1" horiz-adv-x="911" d="M183 960q97 21 210 78.5t206 123.5l68 -19l-165 -1143h-153l137 958q-188 -76 -285 -96z" />
<glyph unicode="2" horiz-adv-x="1249" d="M62 102q156 76 292 159t255 176t188.5 190.5t69.5 183.5q0 227 -246 227q-58 0 -113.5 -15.5t-105 -43.5t-81 -50.5t-68.5 -53.5l-56 87q74 77 198 137.5t268 60.5q184 0 278 -95.5t94 -237.5q0 -86 -46 -173t-117.5 -159.5t-176 -147t-202.5 -130t-216 -114.5l781 29 l-21 -132h-950z" />
<glyph unicode="3" horiz-adv-x="1100" d="M42 -315l13 115q85 -10 144 -10q107 0 205.5 25.5t176.5 72t124.5 118.5t46.5 157q0 112 -71.5 177.5t-227.5 66.5q-16 -7 -95 -28.5t-83 -22.5l13 131q483 117 483 364q0 75 -56 121.5t-154 46.5q-104 0 -187 -36.5t-168 -98.5l-47 112q62 60 185.5 112t268.5 52 q66 0 123.5 -17t103.5 -50t73 -88t27 -126q0 -128 -108 -235.5t-260 -162.5q169 0 261.5 -88t92.5 -217q0 -112 -62.5 -208t-164.5 -159.5t-229.5 -99.5t-259.5 -36q-70 0 -168 12z" />
<glyph unicode="4" horiz-adv-x="1240" d="M23 72q360 563 706 1184h38l106 -68l-577 -929l-108 -158l524 13l64 507l147 28l-67 -527l263 11l-16 -133h-263l-47 -375h-145l49 375h-647z" />
<glyph unicode="5" horiz-adv-x="1104" d="M39 -329l18 108q47 -10 92 -10q94 0 183.5 16.5t169 51t139 82.5t94.5 116t35 147q0 133 -68.5 205.5t-203.5 72.5t-284 -69l-58 58l154 695h582l19 16h128l-31 -144h-581l-120 -488q127 49 260 49q191 0 284.5 -98t93.5 -269q0 -161 -108 -289.5t-285 -197.5t-383 -69 q-81 0 -130 17z" />
<glyph unicode="6" horiz-adv-x="1244" d="M149 488q0 249 109 473t301.5 383.5t436.5 227.5l33 -88q-237 -83 -411.5 -252.5t-249.5 -387.5q159 142 374 142q76 0 137 -21t101.5 -57t67.5 -85.5t38.5 -103.5t11.5 -114q0 -89 -22.5 -177t-68.5 -168t-110 -141.5t-153.5 -98t-191.5 -36.5q-99 0 -177.5 40t-127 110 t-73.5 160t-25 194zM300 474q0 -175 73 -279.5t213 -104.5q73 0 134 32t102 83.5t70 117.5t42 132t13 129q0 138 -65 212t-176 74q-220 0 -378 -168q-28 -118 -28 -228z" />
<glyph unicode="7" horiz-adv-x="1063" d="M98 1021l26 123h883l26 -35l-618 -1424l-137 51l584 1288z" />
<glyph unicode="8" horiz-adv-x="1249" d="M120 348q0 80 34.5 155t93 134t126.5 105t143 78q-46 36 -80 68.5t-69 76.5t-53.5 96.5t-18.5 109.5q0 187 130 292.5t332 105.5q162 0 268 -89t106 -237q0 -143 -106 -262t-264 -176q62 -42 109.5 -82.5t94 -91.5t71.5 -110t25 -120q0 -127 -71 -223.5t-187 -145.5 t-258 -49q-79 0 -153 23t-136 66.5t-99.5 115t-37.5 160.5zM281 367q0 -122 78.5 -201t213.5 -79q134 0 230 80t96 206q0 106 -79 200t-223 190q-56 -27 -109 -65t-100.5 -87.5t-76.5 -113t-30 -130.5zM449 1198q0 -99 62 -177.5t172 -156.5q55 25 105 59t95 80t72 105.5 t27 123.5q0 114 -70 176t-171 62q-123 0 -207.5 -76.5t-84.5 -195.5z" />
<glyph unicode="9" horiz-adv-x="1244" d="M139 540q0 89 22.5 177t68 168t109.5 141.5t153 98t191 36.5q131 0 224.5 -70t137 -182t43.5 -252q0 -187 -64 -363.5t-176 -318.5t-269 -248t-340 -157l-34 89q237 81 412.5 252.5t251.5 389.5q-145 -150 -348 -150q-100 0 -176 32.5t-119.5 88.5t-65 123.5t-21.5 144.5 zM290 561q0 -142 72 -218t194 -76q69 0 129.5 18.5t106.5 52.5t67.5 54t48.5 51q30 127 30 228q0 175 -74 279.5t-215 104.5q-90 0 -161.5 -48t-113 -124t-63 -159t-21.5 -163z" />
<glyph unicode=":" horiz-adv-x="503" d="M85 75q1 54 34.5 91t86.5 37q46 0 68 -25t21 -67q-1 -62 -33.5 -95t-87.5 -33q-39 0 -64.5 25t-24.5 67zM182 907q1 54 34.5 91t86.5 37q46 0 68 -25t21 -67q-1 -62 -33.5 -95t-87.5 -33q-39 0 -64.5 25t-24.5 67z" />
<glyph unicode=";" horiz-adv-x="503" d="M-22 -434l2 18q87 43 145.5 131.5t58.5 203.5q0 76 -26.5 132.5t-67.5 75.5l6 41l79 97q47 -21 81.5 -56t52.5 -76.5t26 -81.5t8 -82q0 -165 -85 -290.5t-225 -179.5zM184 907q1 54 34.5 91t86.5 37q46 0 68 -25t21 -67q-1 -62 -33.5 -95t-87.5 -33q-39 0 -64.5 25 t-24.5 67z" />
<glyph unicode="&#x3c;" horiz-adv-x="1368" d="M197 702l12 98l1011 524l-19 -149l-833 -432l732 -432l-15 -135z" />
<glyph unicode="=" horiz-adv-x="1063" d="M99 358l13 120h815l-14 -120h-814zM169 867l13 120h815l-14 -120h-814z" />
<glyph unicode="&#x3e;" horiz-adv-x="1368" d="M250 179l19 149l833 432l-732 432l15 135l888 -526l-12 -98z" />
<glyph unicode="?" horiz-adv-x="1020" d="M264 1617l22 109q21 22 82 37.5t121 15.5q112 0 200.5 -27t143.5 -71t91 -104t50.5 -121.5t14.5 -128.5q0 -76 -24 -139t-63.5 -105t-90 -79.5t-103.5 -63.5t-103.5 -55.5t-90 -57t-63.5 -66.5t-24 -85q0 -52 48 -169l-98 -38l-13 1q-35 35 -59 94.5t-24 125.5 q0 88 70 156.5t221 148.5q71 36 116.5 63t92.5 70t57 83q12 39 12 98q0 89 -32 158t-86.5 109t-118.5 60t-134 20q-111 0 -215 -39zM353 75q1 54 34 91t86 37q47 0 69 -25t20 -67q-1 -62 -33 -95t-87 -33q-39 0 -64.5 25t-24.5 67z" />
<glyph unicode="@" horiz-adv-x="1968" d="M121 373q0 213 54 399.5t152 326.5t231 241t294 153t337 52q313 0 496.5 -177.5t183.5 -478.5q0 -159 -36.5 -301.5t-97 -246.5t-137 -180.5t-159 -114.5t-161.5 -38q-34 0 -55 16t-30 49t-11.5 62.5t-2.5 77.5q0 80 32 248q-37 -89 -77.5 -164.5t-90 -144.5t-106 -108 t-113.5 -39q-52 0 -102 26t-91.5 76.5t-65.5 135t-22 191.5q2 90 23 180.5t65 177t105.5 153t152 107t197.5 40.5q51 0 123 -14.5t110 -39.5l128 24q-68 -254 -114 -616q-19 -151 -19 -241q0 -64 39 -64q89 0 181.5 102t154.5 272.5t62 349.5q0 126 -30 225t-82 164.5 t-127 109t-161.5 62t-189.5 18.5q-162 0 -308 -56t-257 -155.5t-192.5 -231t-123.5 -288.5t-42 -322q0 -149 35 -270t96 -204.5t146.5 -140.5t184 -83t209.5 -26q100 0 217.5 28t171.5 57l26 -76q-69 -52 -183.5 -84t-242.5 -32q-168 0 -310.5 55t-246 157t-162 256.5 t-58.5 344.5zM681 444q0 -151 44 -236t122 -86q53 0 120.5 82.5t127.5 205.5t110.5 261.5t76.5 254.5q-26 31 -88.5 50t-113.5 19q-93 0 -171 -51t-126.5 -132.5t-75 -177t-26.5 -190.5z" />
<glyph unicode="A" horiz-adv-x="1265" d="M-50 0l745 1530h168l289 -1530h-150l-76 431h-614l-201 -431h-161zM366 546h540l-129 734l-15 115l-55 -119z" />
<glyph unicode="B" horiz-adv-x="1240" d="M121 0l193 1530h82q44 0 142.5 8t152.5 8q125 0 215 -27t138.5 -74.5t71 -103t23.5 -123.5v-11q0 -153 -83 -257q-86 -108 -237 -150q131 -15 220.5 -99.5t91.5 -210.5v-12q-1 -100 -31 -180q-32 -85 -91.5 -142.5t-145 -96t-186.5 -56t-219 -17.5q-39 0 -135.5 7 t-131.5 7h-70zM286 113q28 -8 97 -13.5t108 -5.5q83 0 153.5 12t132 40t104.5 70.5t67 107.5q23 62 23 141v7q-2 131 -94.5 199t-250.5 68q-160 0 -262 -6zM378 847h234q164 0 271 94q105 92 105 254v6q-2 119 -79.5 179.5t-252.5 60.5q-90 0 -205 -13z" />
<glyph unicode="C" horiz-adv-x="1141" d="M110 627v28q0 185 50 346q54 173 150 292t229 186t285 67q132 0 272 -46l51 -16l-53 -126q-3 1 -23.5 10.5t-32 14t-37.5 13t-49.5 13t-59.5 8t-74 3.5q-113 0 -208 -47.5t-158.5 -126t-107.5 -180t-63 -209.5q-17 -98 -17 -195v-20q2 -112 25 -206t67.5 -169.5 t119.5 -118.5t173 -43q111 0 212 34t154 72l23 -128q-157 -98 -416 -98q-110 0 -198.5 37.5t-145.5 99t-95 146t-54.5 173t-18.5 186.5z" />
<glyph unicode="D" horiz-adv-x="1377" d="M121 0l193 1530h87q46 0 157 8t164 8q149 0 260.5 -45t179 -128.5t101 -195.5t35.5 -255v-16q0 -254 -92 -464q-94 -216 -274 -340q-171 -119 -389 -118h-21q-64 2 -113 7q-101 9 -211 9h-77zM287 125q148 -26 250 -26h21q114 3 211 49.5t165.5 124.5t116.5 181t70 219 q21 111 21 226v11q-4 276 -111 400t-352 124q-95 0 -230 -19z" />
<glyph unicode="E" horiz-adv-x="1138" d="M121 0l193 1530h756l-6 -120l-614 7l-73 -579l474 6l-9 -127l-479 11l-78 -614l737 13l-11 -127h-890z" />
<glyph unicode="F" horiz-adv-x="1057" d="M121 0l193 1530h779l-11 -120l-632 7l-73 -582l508 8l-10 -130l-512 12l-92 -725h-150z" />
<glyph unicode="G" horiz-adv-x="1340" d="M112 627v27q0 186 52 347q56 173 155 292t235.5 186t290.5 67q188 0 363 -55l39 -12l-48 -137q-138 82 -356 82q-113 0 -210 -45.5t-164 -122t-114.5 -177.5t-68.5 -211q-21 -106 -21 -214v-10q1 -105 22 -198t63.5 -172.5t117.5 -126t175 -46.5q146 0 371 85l54 421 l-281 1l15 121h430l-82 -635q-39 -4 -137 -33q-3 -1 -44 -13.5t-53 -15.5t-50.5 -13.5t-60.5 -14.5t-57 -10t-67.5 -8.5t-64.5 -2.5q-104 0 -189.5 37.5t-142.5 99.5t-96 146.5t-56.5 174.5t-19.5 186z" />
<glyph unicode="H" horiz-adv-x="1410" d="M121 0l193 1530h150l-89 -701h726l89 701h150l-192 -1530h-151l90 714h-726l-90 -714h-150z" />
<glyph unicode="I" horiz-adv-x="572" d="M145 0l193 1530h151l-193 -1530h-151z" />
<glyph unicode="J" horiz-adv-x="584" d="M-169 -255q93 25 165.5 81.5t112.5 122t55 136.5q28 135 57 337t46.5 358t44.5 404.5t38 345.5h151q-54 -506 -111.5 -945t-79.5 -510q-30 -100 -76 -172.5t-106 -117t-124 -69.5t-145 -39z" />
<glyph unicode="K" horiz-adv-x="1245" d="M121 0l193 1530h150l-105 -828l746 828h178l-622 -676q54 -86 164.5 -282t128.5 -227q154 -271 209 -345h-181q-6 6 -18 26t-32 56t-39 71t-50 92t-54 99q-172 315 -225 405l-231 -252l-62 -497h-150z" />
<glyph unicode="L" horiz-adv-x="978" d="M121 0l193 1530h150l-177 -1404l593 4l-16 -130h-743z" />
<glyph unicode="M" horiz-adv-x="1791" d="M72 0l380 1530h194l173 -1068l31 -236l92 234l460 1070h218l-44 -1530h-153l49 1022l24 409l-158 -361l-466 -1074l-107 -14l-170 1063l-50 386l-77 -394l-243 -1037h-153z" />
<glyph unicode="N" horiz-adv-x="1402" d="M121 0l193 1530h158l491 -1127l72 -207l21 238l134 1096h143l-193 -1530h-149l-494 1122l-72 239l-29 -288l-134 -1073h-141z" />
<glyph unicode="O" horiz-adv-x="1378" d="M112 613v27q0 244 86 448q91 214 253.5 336.5t361.5 122.5q117 0 210 -49.5t152 -136.5t91 -200t34 -245v-22q0 -181 -47 -343q-50 -172 -141 -297t-223 -198t-284 -73q-154 0 -266 83.5t-167.5 224t-59.5 322.5zM269 643q4 -272 96 -408t264 -136q150 0 270 107.5 t184 287.5q60 170 60 369v25q-9 539 -354 539q-149 0 -271 -109q-120 -108 -186 -288q-63 -172 -63 -369v-18z" />
<glyph unicode="P" horiz-adv-x="1180" d="M121 0l193 1530h88q55 0 154 8t153 8q220 0 337 -96.5t120 -292.5v-16q0 -279 -166 -445q-170 -170 -448 -170q-107 0 -212 14l-69 -540h-150zM355 662q87 -17 182 -17h20q223 1 338.5 129t118.5 369v7q0 138 -80 210q-82 74 -248 73q-81 0 -237 -20z" />
<glyph unicode="Q" horiz-adv-x="1378" d="M112 613v27q0 245 86 448q91 215 253.5 337t361.5 122q117 0 210 -49.5t152 -136.5t91 -200t34 -245v-24q0 -227 -72 -420q-76 -202 -218 -330t-324 -153q0 -52 19 -90.5t48.5 -60.5t72.5 -35.5t83.5 -18t89.5 -4.5q129 0 218 35v-117q-39 -26 -127.5 -41.5t-177.5 -15.5 q-72 0 -135.5 21.5t-112 62.5t-72.5 108q-17 47 -17 103q0 23 3 48q-146 7 -251.5 92t-158 222.5t-56.5 314.5zM269 643q4 -272 96 -408t264 -136q150 0 270 107.5t184 287.5q60 170 60 369v25q-9 539 -354 539q-149 0 -270.5 -108.5t-186.5 -288.5q-63 -171 -63 -369v-18z " />
<glyph unicode="R" horiz-adv-x="1256" d="M120 0l192 1530h76q56 0 154 8t156 8q226 0 347 -90t124 -262v-14q-1 -180 -97 -316q-100 -140 -273 -186q45 -41 100 -148.5t87 -192.5q11 -26 28 -65.5t25.5 -58.5t21 -48t19 -42.5t15.5 -34t14.5 -30.5t12 -22.5t12 -21t10.5 -15.5l-172 2q-36 57 -113 257 q-139 396 -244 398q-116 0 -262 2l-82 -658h-151zM368 779q37 -2 268 -2q174 0 274 114q97 110 96 282v14q-4 243 -329 243q-93 0 -229 -16z" />
<glyph unicode="S" horiz-adv-x="1044" d="M29 73l42 123q31 -33 132.5 -63.5t203.5 -30.5q71 0 134 16t114 47.5t80.5 85t29.5 123.5q0 99 -58.5 173.5t-184.5 155.5q-48 31 -77 51.5t-73.5 55.5t-72 67.5t-55.5 75.5t-42 92.5t-15 105.5v11q-1 174 125 278q130 106 333 107q226 0 346 -85l-48 -116 q-41 41 -121.5 63t-166.5 22q-41 0 -80 -5.5t-82.5 -21.5t-76 -42t-54.5 -70t-24 -102v-9q0 -33 6 -63q7 -34 17 -61t32 -55t40 -46.5t53 -45t58 -42.5t67 -45q56 -37 88 -59.5t80 -65t74.5 -80.5t47 -92.5t21.5 -114.5v-8q0 -132 -66 -227q-68 -98 -184.5 -145t-267.5 -47 q-118 0 -227.5 29t-147.5 60z" />
<glyph unicode="T" horiz-adv-x="1122" d="M138 1410l17 120h1044l-17 -120l-443 9l-179 -1419h-150l179 1419z" />
<glyph unicode="U" horiz-adv-x="1360" d="M154 422v9q0 59 12 162l119 937h150l-115 -911q-12 -100 -12 -179v-12q3 -154 82 -238t233 -84q188 0 292.5 124t141.5 410l112 890h147l-114 -903q-45 -346 -190 -495t-410 -149q-216 0 -330 114.5t-118 324.5z" />
<glyph unicode="V" horiz-adv-x="1169" d="M154 1530h150l168 -1096l39 -282l115 282l478 1096h160l-695 -1534l-161 -1z" />
<glyph unicode="W" horiz-adv-x="1770" d="M149 1530h150l146 -1096l40 -268l86 259l352 879l-23 226h144l109 -1096l20 -268l99 259l443 1105h152l-647 -1540h-154l-89 860l-18 236l-84 -236l-340 -860h-155z" />
<glyph unicode="X" horiz-adv-x="1147" d="M-35 0l555 788l-323 742h166l255 -635l424 635h170l-536 -772l348 -758h-172l-274 656l-430 -656h-183z" />
<glyph unicode="Y" horiz-adv-x="1083" d="M105 1530h161l261 -710l41 -103l55 102l428 711h162l-592 -945l-75 -585h-144l76 585z" />
<glyph unicode="Z" horiz-adv-x="1157" d="M15 70l822 1157l151 186l-744 -11l16 128h903l19 -66l-843 -1195l-124 -148l812 9l-21 -130h-970z" />
<glyph unicode="[" horiz-adv-x="854" d="M194 -64q0 38 3 85q9 161 106 801.5t104 696.5q14 111 50 151t126 40q42 0 106.5 -9t115.5 -18.5t57 -9.5l-9 -66h-292l-230 -1675q33 0 148.5 -1t147.5 -1l-7 -66q-161 -36 -296 -36q-72 0 -101 23.5t-29 84.5z" />
<glyph unicode="\" horiz-adv-x="854" d="M46 1597h132l577 -1959h-133z" />
<glyph unicode="]" horiz-adv-x="854" d="M55 -117l9 66h292l230 1675q-33 0 -148.5 1t-147.5 1l7 66q161 36 296 36q72 0 101 -23.5t29 -84.5q0 -38 -3 -85q-9 -161 -106 -801.5t-104 -696.5q-14 -111 -50 -151t-126 -40q-42 0 -106.5 9t-115.5 18.5t-57 9.5z" />
<glyph unicode="^" horiz-adv-x="1358" d="M186 510l518 1020h153l267 -1020h-131l-226 875l-446 -875h-135z" />
<glyph unicode="_" horiz-adv-x="1335" d="M-111 -338l15 115h1378l-15 -115h-1378z" />
<glyph unicode="`" horiz-adv-x="541" d="M72 1597l115 104l294 -397l-65 -55q-76 52 -189 164.5t-155 183.5z" />
<glyph unicode="a" horiz-adv-x="1130" d="M81 415q0 97 23 197.5t74 198.5t123 174.5t179 123.5t234 47q97 0 214 -37l113 37l-157 -1156h-131l19 202v3q-63 -91 -161 -156t-212 -65q-158 0 -238 115.5t-80 315.5zM235 433q0 -333 189 -333q59 0 118.5 27t106.5 70.5t82 87t60 87.5l20 185l64 451q-84 38 -185 38 q-87 0 -162.5 -37.5t-128.5 -100t-90.5 -142.5t-55.5 -165t-18 -168z" />
<glyph unicode="b" horiz-adv-x="1159" d="M95 2l218 1635h141l-58 -490l-35 -208q65 89 165.5 153t215.5 64q158 0 238 -116t80 -317q0 -97 -24 -197.5t-76 -198t-125 -173.5t-181 -123t-235 -47q-117 0 -240 43zM259 129q83 -35 184 -35q90 0 167.5 39t130.5 102.5t91.5 144t56 164t17.5 162.5q0 166 -48.5 250 t-141.5 84q-58 0 -116.5 -25t-106 -65.5t-83.5 -82t-63 -83.5z" />
<glyph unicode="c" horiz-adv-x="911" d="M89 433q0 96 23 196t70.5 194.5t114 168.5t162 119t205.5 45q138 0 219 -41l-39 -128q-71 57 -194 57q-107 0 -201.5 -81.5t-151 -219.5t-56.5 -295q0 -350 242 -350q80 0 146.5 37.5t139.5 109.5l50 -82q-22 -28 -53.5 -56t-76 -57.5t-104.5 -47.5t-124 -18 q-180 0 -276 119t-96 330z" />
<glyph unicode="d" horiz-adv-x="1149" d="M79 416q0 97 24 197.5t76 198.5t125 174t181 123t234 47q77 0 177 -25l70 506h148l-224 -1637h-132l20 208q-64 -92 -165 -158t-216 -66q-158 0 -238 116t-80 316zM233 434q0 -166 49 -250t141 -84q58 0 116.5 25.5t106 67.5t83 84.5t62.5 85.5l89 648q-85 36 -184 36 q-75 0 -142 -27.5t-116.5 -74.5t-89.5 -108t-64.5 -130t-37.5 -138.5t-13 -134.5z" />
<glyph unicode="e" horiz-adv-x="1031" d="M90 441q4 148 49 279.5t121 227.5t185 152t235 56q137 0 208 -69.5t71 -180.5q0 -79 -36.5 -148t-97.5 -117t-135 -86t-156 -61t-153.5 -35.5t-133.5 -15.5q-1 -19 -1 -37q0 -30 3 -58q5 -46 21.5 -92t44 -79t74 -54t107.5 -21q179 0 348 170l43 -86q-53 -73 -165 -137.5 t-243 -64.5q-84 0 -151.5 26t-112 70t-74 103t-41.5 123q-10 55 -10 115v20zM252 550q87 3 182.5 28t180.5 67t140 107.5t55 140.5q0 76 -42.5 113t-119.5 37q-80 0 -152 -44.5t-122 -116.5t-82 -158.5t-40 -173.5z" />
<glyph unicode="f" horiz-adv-x="695" d="M152 1021l22 118l146 1l18 124q25 189 129 301.5t271 112.5q93 0 151 -26l-38 -121q-46 31 -127 31h-5q-91 -1 -153 -75t-76 -185l-21 -162h243l-9 -119h-250l-138 -1021h-148l137 1021h-152z" />
<glyph unicode="g" horiz-adv-x="1149" d="M79 416q0 97 24 197.5t76 198.5t125 174t181 123t234 47q101 0 220 -36l116 36l-176 -1245q-13 -91 -51.5 -164t-90 -119t-116 -77t-126.5 -43.5t-124 -12.5q-65 0 -145.5 11t-110.5 24l38 126q108 -48 246 -48q137 0 221 77.5t110 222.5l48 299q-65 -91 -165.5 -157 t-215.5 -66q-158 0 -238 116t-80 316zM233 434q0 -166 49 -250t141 -84q57 0 114.5 25t104.5 65.5t83 82.5t63 85l96 652q-87 36 -188 36q-75 0 -142 -27.5t-116.5 -74.5t-89.5 -108t-64.5 -129.5t-37.5 -138t-13 -134.5z" />
<glyph unicode="h" horiz-adv-x="1198" d="M97 0l211 1637h148l-55 -479l-44 -289q94 122 223 204.5t252 82.5q121 0 176 -70q54 -69 54 -211v-5q-1 -84 -42 -357q-7 -52 -21.5 -148t-32.5 -212t-24 -153h-149q10 74 41.5 279t35.5 233q41 275 41 350q0 83 -31 119.5t-108 36.5q-95 0 -219.5 -89.5t-209.5 -207.5 l-98 -721h-148z" />
<glyph unicode="i" horiz-adv-x="564" d="M133 0l154 1144h149l-155 -1144h-148zM317 1528q2 48 35 81.5t76 33.5q44 -1 69 -27q23 -25 23 -61v-6q-3 -50 -37 -85t-80 -35q-39 1 -64 29q-22 25 -22 61v9z" />
<glyph unicode="j" horiz-adv-x="579" d="M-244 -477l40 86q26 -20 75 -20q55 0 98.5 24.5t71.5 63.5t49.5 102.5t34 127.5t24.5 152l146 1085h149l-153 -1139q-33 -249 -135.5 -384.5t-263.5 -135.5q-86 0 -136 38zM321 1528q2 48 35 81.5t76 33.5q44 0 69 -27q23 -24 23 -61v-6q-3 -50 -37 -85t-80 -35 q-39 0 -64 29q-22 25 -22 61v9z" />
<glyph unicode="k" horiz-adv-x="1023" d="M97 0l208 1637h148l-207 -1637h-149zM375 628h1l-1 1q71 41 117 69t111 78.5t106 99.5q106 121 151 264h143q-11 -129 -112 -264q-63 -85 -159 -156t-185 -115l420 -602h-173z" />
<glyph unicode="l" horiz-adv-x="563" d="M133 3l223 1634h148l-222 -1634h-149z" />
<glyph unicode="m" horiz-adv-x="1782" d="M93 3l155 1137h141l-28 -253q88 117 203 193t228 76q107 0 161 -57t63 -174q85 102 192.5 166.5t212.5 64.5q116 0 172 -66.5t56 -217.5q0 -92 -42 -360q-9 -64 -39 -259.5t-38 -249.5h-150q10 74 41 275.5t36 233.5q40 255 40 351q0 82 -30.5 118.5t-105.5 36.5 q-74 0 -172 -65.5t-177 -161.5q-6 -67 -37 -278q-5 -34 -77 -510h-149q10 75 41.5 281.5t34.5 227.5q41 275 41 351q0 83 -30.5 119.5t-104.5 36.5q-87 0 -200.5 -88t-191.5 -206l-98 -722h-148z" />
<glyph unicode="n" horiz-adv-x="1194" d="M93 3l154 1137h141l-29 -265q95 121 222 201t249 80q121 0 176 -70q54 -68 54 -209v-5q-1 -86 -42 -359q-9 -64 -39 -260.5t-38 -249.5h-149q10 75 41.5 281.5t34.5 227.5q41 275 41 351q0 83 -31.5 119t-108.5 36q-96 0 -222 -91t-209 -211l-97 -713h-148z" />
<glyph unicode="o" horiz-adv-x="1135" d="M98 444v15q0 173 67 329q70 162 201.5 265t292.5 103q184 0 278 -119t98 -341v-13q0 -127 -38 -250q-40 -129 -111.5 -228.5t-177.5 -160t-227 -60.5q-185 0 -282 119.5t-101 340.5zM252 447q2 -170 65.5 -260t187.5 -90q90 0 164 55t119 143q45 87 69 191q22 96 22 191 v16q-5 351 -244 351q-91 0 -166.5 -55t-122 -143t-71.5 -192q-23 -96 -23 -192v-15z" />
<glyph unicode="p" horiz-adv-x="1162" d="M26 -515l219 1655h134l-22 -205q64 90 165 155.5t217 65.5q158 0 238 -116t80 -317q0 -98 -24 -199t-76 -198t-125 -173t-181 -122.5t-235 -46.5q-71 0 -173 24l-69 -523h-148zM259 129q85 -35 181 -35q108 0 198.5 57t146.5 147.5t86.5 196.5t30.5 211q0 169 -50 251.5 t-139 82.5q-110 0 -210 -81.5t-158 -178.5z" />
<glyph unicode="q" horiz-adv-x="1146" d="M79 416q0 97 24 197.5t76 198.5t125 174t181 123t234 47q94 0 203 -34l121 38l-221 -1667h-148l78 580l24 132q-65 -91 -165 -156t-214 -65q-158 0 -238 116t-80 316zM233 434q0 -170 50.5 -252t139.5 -82q59 0 118.5 27t107.5 70t84.5 86.5t61.5 86.5q3 29 6.5 69.5 t6 66t3.5 36.5l63 469q-85 35 -178 35q-87 0 -163.5 -37.5t-130.5 -99.5t-93 -142t-57.5 -165t-18.5 -168z" />
<glyph unicode="r" horiz-adv-x="778" d="M93 0l153 1140h140l-26 -251q22 44 58.5 88.5t85 85.5t111.5 67t127 26q50 0 64 -13l-33 -158q-27 13 -92 13q-87 0 -190 -90t-159 -228l-91 -680h-148z" />
<glyph unicode="s" horiz-adv-x="872" d="M45 48l28 130q42 -30 114.5 -55.5t159.5 -25.5q104 0 169 44t65 131q0 21 -5 40.5t-11 34.5t-20.5 33.5t-24 29.5t-30 29t-31 26.5t-36 28t-34.5 26.5q-43 33 -64.5 51.5t-56 53.5t-51.5 65t-30.5 73t-13.5 91q0 142 108.5 222t268.5 80q83 0 153.5 -14t100.5 -30 l-29 -140q-8 11 -33.5 26t-79 30.5t-112.5 15.5q-108 0 -171 -46.5t-63 -124.5q0 -18 3 -35t6.5 -30.5t13 -29t14.5 -25t19.5 -24.5t20 -21.5t24 -22t23 -19t26 -20t24.5 -18.5q98 -75 134 -110q104 -107 105 -229q0 -147 -108 -226t-282 -79q-94 0 -180 19.5t-114 44.5z " />
<glyph unicode="t" horiz-adv-x="739" d="M136 1021l31 118l127 1l56 279h126l-36 -279h291l-18 -119h-290l-87 -659q-16 -119 -16 -143q0 -116 79 -116q43 0 111.5 35t107.5 66l20 -84q-35 -42 -127.5 -89t-169.5 -47q-84 0 -129.5 43.5t-45.5 128.5q0 37 12 134l93 731h-135z" />
<glyph unicode="u" horiz-adv-x="1173" d="M113 266q0 58 26 268q28 218 85 606h149q-83 -597 -84 -607q-24 -183 -24 -257q0 -95 38 -130t119 -35q93 0 209 91t195 213l95 725h149l-152 -1140h-138l29 262q-87 -121 -204.5 -201t-236.5 -80q-130 0 -192.5 66t-62.5 219z" />
<glyph unicode="v" horiz-adv-x="1007" d="M114 1140h165l82 -786l22 -238l167 209q111 160 171.5 283t88.5 284q26 157 26 223q0 15 -1 25h142q4 -35 3 -77q0 -28 -1 -59q-14 -201 -119.5 -409t-257.5 -389l-181 -210l-135 -10l-58 368z" />
<glyph unicode="w" horiz-adv-x="1633" d="M118 1140h166l84 -786l21 -237l135 177q210 290 270 560l-42 286h163l86 -786l23 -238l136 174q110 146 169 285t81 317q2 14 6.5 50t7.5 57.5t7 57t4 49.5t-1 34h146q3 -27 3 -61q0 -28 -2 -60q-14 -215 -116.5 -447.5t-251.5 -400.5l-153 -175l-136 -10l-57 368 l-37 253q-115 -274 -253 -431l-150 -180l-135 -10l-57 368z" />
<glyph unicode="x" horiz-adv-x="949" d="M-43 3l437 588l-261 549h178l176 -449l316 449h163l-428 -567l283 -570h-174l-202 472l-328 -472h-160z" />
<glyph unicode="y" horiz-adv-x="1048" d="M-200 -472l43 124q2 -1 11.5 -5.5t15 -7t18 -6.5t24 -6.5t28.5 -4.5t35 -2q105 0 206.5 73t223.5 251h-93l-62 355l-127 841h164l109 -841l43 -301q69 116 131 225q233 388 263 782q3 46 3 91q0 22 -1 44h147q4 -33 4 -75q0 -27 -2 -59q-18 -327 -267 -790 q-130 -241 -263 -405q-28 -36 -45.5 -57t-51.5 -58.5t-61.5 -60.5t-69 -52t-81 -45.5t-91 -28t-104.5 -11.5q-71 0 -150 30z" />
<glyph unicode="z" horiz-adv-x="963" d="M-21 46l621 792l167 183h-583l17 119h723l36 -41l-648 -828l-142 -152h642l-11 -119h-776z" />
<glyph unicode="{" horiz-adv-x="1024" d="M162 728l14 97q134 35 199 65q71 31 79 78l82 551q17 113 53.5 152t125.5 39q40 0 106 -9t112 -18l46 -9q-10 -53 -10 -67h-276l-96 -638q-11 -77 -108 -125q-29 -14 -88 -39.5t-74 -28.5q107 -49 155 -88q64 -50 54 -112l-94 -631h275l-9 -68q-156 -36 -274 -36 q-73 0 -101.5 23.5t-27.5 87.5l90 627q3 41 -60 78q-73 44 -173 71z" />
<glyph unicode="|" horiz-adv-x="854" d="M375 -186v1966h131v-1966h-131z" />
<glyph unicode="}" horiz-adv-x="1024" d="M93 -128q10 53 10 67h276l96 638q11 77 108 125q29 14 88 39.5t74 28.5q-107 49 -155 88q-64 50 -54 112l94 631h-275l9 68q156 36 274 36q73 0 101.5 -23.5t27.5 -87.5l-90 -627q-3 -41 60 -78q73 -44 173 -71l-14 -97q-134 -35 -199 -65q-71 -31 -79 -78l-82 -551 q-17 -113 -53.5 -152t-125.5 -39q-40 0 -106 9t-112 18z" />
<glyph unicode="~" horiz-adv-x="1137" d="M140 844q23 69 109.5 133t192.5 64q42 0 81.5 -18t70.5 -43.5t61 -50.5t64 -43t67 -18q127 0 210 130l56 -57q-23 -76 -106 -138t-189 -62q-42 0 -82 18t-71 43.5t-61 51t-63.5 43.5t-66.5 18q-134 0 -218 -128z" />
<glyph />
<glyph unicode="&#xa1;" horiz-adv-x="621" d="M84 -434l215 1290h120l-163 -1290h-172zM298 1243q8 55 46 86.5t90 31.5q43 0 69 -27t20 -75q-7 -51 -46 -84.5t-89 -33.5q-52 0 -74 28t-16 74z" />
<glyph unicode="&#xa2;" horiz-adv-x="1057" d="M140 433q0 112 31.5 227t90.5 217.5t154.5 176.5t211.5 94l50 210h116l-50 -203q121 -5 190 -40l-39 -128q-71 57 -194 57q-107 0 -201.5 -81.5t-151 -219.5t-56.5 -295q0 -350 242 -350q80 0 146.5 37.5t139.5 109.5l50 -82q-50 -64 -139 -119.5t-204 -59.5l-37 -199 h-115l39 210q-134 30 -204 144t-70 294z" />
<glyph unicode="&#xa3;" horiz-adv-x="1368" d="M15 57q6 44 76 90t131 46q82 66 118 295l44 263h-187l14 100h190l22 129q17 113 57 211t103 179t159 128t213 47q93 0 153 -16.5t105 -64.5l-71 -107q-21 30 -77 55t-133 25q-119 0 -217 -112t-137 -343l-24 -131h329l-13 -100h-333l-20 -112q-29 -180 -58 -274.5 t-91 -183.5q20 -5 103.5 -34.5t160 -46.5t156.5 -17q161 0 236.5 60.5t75.5 168.5q0 55 -28 106.5t-68 77.5l119 91q135 -113 134 -272q0 -48 -10.5 -91t-41 -90.5t-78 -81t-130 -55.5t-190.5 -22q-81 0 -166 14t-132.5 28t-130.5 42t-102 34q-34 -43 -92.5 -75.5 t-109.5 -32.5q-70 0 -59 72z" />
<glyph unicode="&#xa4;" horiz-adv-x="1514" d="M227 1149l87 87l191 -193q117 85 261 85q152 0 272 -93l187 188l87 -87l-190 -190q84 -114 84 -256q0 -146 -88 -263l192 -192l-87 -86l-192 191q-118 -88 -265 -88q-143 0 -258 82l-191 -191l-87 86l189 190q-93 120 -93 271t92 268zM440 690q0 -139 95.5 -237.5 t230.5 -98.5t230.5 98.5t95.5 237.5t-95.5 237.5t-230.5 98.5t-230.5 -98.5t-95.5 -237.5z" />
<glyph unicode="&#xa5;" horiz-adv-x="1483" d="M237 382l13 100h418l29 254h-415l13 101h368l-336 693h147l272 -574l49 -118l75 124l393 568h149l-516 -693h377l-13 -101h-427l-30 -254h425l-12 -100h-425l-44 -382h-134l43 382h-419z" />
<glyph unicode="&#xa6;" horiz-adv-x="854" d="M375 -186v894h131v-894h-131zM375 886v894h131v-894h-131z" />
<glyph unicode="&#xa7;" horiz-adv-x="1194" d="M128 -65l43 116q37 -44 137.5 -81t201.5 -37q74 0 138 11t120 35t88 69t32 106q0 76 -74.5 132t-234.5 118q-61 24 -111 49.5t-101 62.5t-85.5 78.5t-56.5 97t-23 118.5q-3 167 186 256q-143 118 -146 277q-1 105 67.5 181t179.5 112.5t249 36.5q230 0 352 -105l-48 -116 q-40 50 -133 77.5t-181 27.5q-86 0 -158 -22t-119.5 -68t-50.5 -109q-2 -47 13.5 -86.5t35.5 -65.5t69.5 -57t82 -47.5t107.5 -50.5q18 -9 28 -13q58 -26 104 -51t94.5 -60t81 -72t53.5 -86t22 -103q1 -176 -142 -290q92 -81 95 -187q2 -121 -71.5 -207.5t-193.5 -127 t-271 -40.5q-120 0 -229.5 40t-150.5 81zM361 834q-2 -35 5 -65t18 -52.5t35 -46t44 -39t60 -36.5t67 -34t79 -37q112 -44 175 -78q90 74 90 193q0 82 -64.5 146.5t-220.5 133.5q-103 44 -167 82q-54 -27 -86.5 -70t-34.5 -97z" />
<glyph unicode="&#xa8;" horiz-adv-x="809" d="M95 1508q2 48 35.5 81.5t76.5 33.5t68 -26.5t23 -67.5q-3 -50 -37 -84.5t-80 -34.5q-38 0 -63.5 28t-22.5 70zM516 1508q2 48 35.5 81.5t76.5 33.5t68 -26.5t23 -67.5q-3 -50 -37 -84.5t-80 -34.5q-38 0 -63.5 28t-22.5 70z" />
<glyph unicode="&#xa9;" horiz-adv-x="2061" d="M196 938q0 173 66 329.5t178 269.5t268 179.5t328 66.5q173 0 329 -66.5t268 -179.5t178 -269.5t66 -329.5q0 -231 -112 -426t-305.5 -308.5t-423.5 -113.5q-172 0 -327.5 67t-268 180.5t-178.5 270.5t-66 330zM306 938q0 -204 95 -375.5t263 -272t372 -100.5 t372.5 100.5t263.5 272t95 375.5q0 203 -95 374.5t-263.5 272.5t-372.5 101t-372 -101t-263 -272.5t-95 -374.5zM607 932q-1 137 53.5 244.5t164.5 172t260 64.5q127 0 232 -51l-27 -125q-89 55 -219 55q-147 0 -231.5 -99.5t-84.5 -249.5q0 -169 82.5 -262t214.5 -93 q144 0 255 67l36 -95q-49 -41 -133 -67t-178 -26q-129 0 -227.5 65.5t-148 170t-49.5 229.5z" />
<glyph unicode="&#xaa;" horiz-adv-x="854" d="M104 1040q0 96 38.5 192t104 172.5t161 124.5t200.5 48q84 0 169 -29l78 21l-146 -826h-128l26 140q-116 -140 -264 -140q-117 0 -178 78.5t-61 218.5zM238 1051q0 -106 36.5 -161.5t120.5 -55.5q97 0 218 130l85 495q-44 39 -108 39q-100 0 -182.5 -68.5t-126 -170.5 t-43.5 -208z" />
<glyph unicode="&#xab;" horiz-adv-x="1878" d="M249 551l16 120l695 415l29 -89l-556 -383l452 -377l-53 -85zM925 551l16 120l695 415l29 -89l-556 -383l452 -377l-53 -85z" />
<glyph unicode="&#xac;" horiz-adv-x="1370" d="M213 718l13 117h960l-60 -513h-134l47 396h-826z" />
<glyph unicode="&#xad;" horiz-adv-x="1706" />
<glyph unicode="&#xae;" horiz-adv-x="2061" d="M196 938q0 173 66 329.5t178 269.5t268 179.5t328 66.5q173 0 329 -66.5t268 -179.5t178 -269.5t66 -329.5q0 -231 -112 -426t-305.5 -308.5t-423.5 -113.5q-172 0 -327.5 67t-268 180.5t-178.5 270.5t-66 330zM306 938q0 -204 95 -375.5t263 -272t372 -100.5 t372.5 100.5t263.5 272t95 375.5q0 203 -95 374.5t-263.5 272.5t-372.5 101t-372 -101t-263 -272.5t-95 -374.5zM732 467v937h60q34 0 117.5 3t136.5 3q173 0 260.5 -73t87.5 -189q0 -243 -213 -290q18 -13 35 -31t29.5 -33.5t28.5 -42.5t23.5 -41.5t24.5 -46.5t22 -42 q29 -53 94 -154l-156 1q-30 41 -75 137q-55 115 -83 154q-45 62 -98 80q-19 -1 -158 -1v-371h-136zM868 940q33 -3 166 -3q219 1 219 194q0 86 -54.5 133t-188.5 44q-94 -2 -142 -9v-359z" />
<glyph unicode="&#xaf;" horiz-adv-x="614" d="M46 1434l4 114h510l-5 -114h-509z" />
<glyph unicode="&#xb0;" horiz-adv-x="899" d="M147 1279q2 138 97.5 229.5t237.5 91.5q138 0 229.5 -93.5t89.5 -227.5q-2 -139 -99 -231.5t-239 -92.5q-135 0 -226.5 95t-89.5 229zM255 1279q-2 -96 60 -163.5t153 -67.5q97 0 160 65.5t65 165.5q2 97 -60 162.5t-155 65.5q-96 0 -158.5 -65t-64.5 -163z" />
<glyph unicode="&#xb1;" horiz-adv-x="1366" d="M172 30l13 115h869l-13 -115h-869zM243 712l14 121h225l159 -9q2 21 9 91.5t8 89.5l27 230h136l-26 -230l-30 -180l133 8h256l-14 -121h-256l-130 5q-1 -21 -7.5 -90.5t-7.5 -90.5l-29 -241h-138l29 241l28 181l-161 -5h-225z" />
<glyph unicode="&#xb2;" horiz-adv-x="1168" d="M177 712q54 31 73.5 42t86 51t102.5 64t100 69t102 78.5t86.5 80t75 86t45.5 84t19 85.5q0 85 -60 131.5t-163 46.5q-188 0 -335 -152l-54 72q52 72 162.5 133.5t240.5 63.5q86 1 156 -22.5t112 -62t64.5 -82.5t22.5 -88q0 -58 -18.5 -114.5t-41 -99.5t-75.5 -96 t-85.5 -83t-110.5 -83t-111 -74t-124 -77q-11 -7 -17.5 -11t-15.5 -9.5t-17 -10.5l602 25l-5 -122h-782z" />
<glyph unicode="&#xb3;" horiz-adv-x="1065" d="M132 602l14 84q50 -27 122 -41.5t129 -13.5q60 0 119 13.5t113 41t88.5 77t36.5 114.5q4 75 -49 127.5t-148 53.5q-9 -3 -89 -22.5t-94 -23.5l16 111q62 15 112 31.5t99 40.5t81.5 52.5t53 67.5t20.5 85q0 139 -187 136q-148 -3 -294 -100l-35 87q175 121 385 121 q141 0 222 -62t78 -154q-3 -104 -76.5 -181t-188.5 -120q59 0 105.5 -17t73.5 -43t44.5 -59.5t23.5 -64t5 -59.5q-3 -87 -48.5 -156.5t-117.5 -111.5t-157.5 -63.5t-175.5 -21.5q-62 0 -145 18.5t-136 52.5z" />
<glyph unicode="&#xb4;" horiz-adv-x="559" d="M58 1304l308 400l115 -104q-32 -56 -153.5 -178t-206.5 -173z" />
<glyph unicode="&#xb5;" horiz-adv-x="1354" d="M130 -372l188 1266q17 114 -25 114q-48 0 -105 -57l-50 88q8 11 25 26.5t46 36t71 34.5t86 14q59 0 90 -46t19 -137q-4 -34 -26 -194t-42.5 -303.5t-20.5 -142.5q-5 -57 8.5 -99.5t41.5 -66.5t63 -35t77 -11q81 0 167.5 57.5t139.5 124.5l118 843h148l-124 -915 q-8 -50 1.5 -80.5t35.5 -30.5q54 0 124 82l49 -85q-8 -12 -25.5 -30t-47 -42.5t-70.5 -41t-83 -16.5q-61 0 -97 38.5t-35 116.5q-70 -72 -147.5 -113.5t-194.5 -41.5q-62 1 -121.5 34t-72.5 85l-70 -472h-141z" />
<glyph unicode="&#xb6;" horiz-adv-x="1364" d="M161 1117q-4 213 130 333.5t421 120.5q103 0 219 -9.5t157 -9.5h240l-8 -80l-170 -25q-25 -213 -90.5 -725.5t-90.5 -721.5h-145l178 1446q-16 1 -114 3t-123 1l-188 -1450h-147l104 774q-168 4 -269 93.5t-104 249.5z" />
<glyph unicode="&#xb7;" horiz-adv-x="686" d="M243 722q1 54 34.5 91t86.5 37q46 0 68 -25t21 -67q-1 -62 -33.5 -95t-87.5 -33q-39 0 -64.5 25t-24.5 67z" />
<glyph unicode="&#xb8;" horiz-adv-x="479" d="M3 -436l20 115q34 -18 88 -18q170 0 170 193q0 116 -16 168l59 4l41 -4q47 -74 47 -203q0 -78 -20.5 -134.5t-58 -88.5t-83 -46.5t-101.5 -14.5q-41 0 -85.5 8.5t-60.5 20.5z" />
<glyph unicode="&#xb9;" horiz-adv-x="969" d="M258 1464q98 25 230.5 86.5t173.5 94.5l56 -17l-138 -992h-142l115 819q-8 -6 -69.5 -24t-136.5 -38.5t-84 -23.5z" />
<glyph unicode="&#xba;" horiz-adv-x="854" d="M101 1100q0 113 39.5 208.5t103.5 156t141 93t154 31.5q147 -2 234.5 -104.5t87.5 -265.5q0 -114 -38 -209t-100 -154.5t-140 -92t-161 -30.5q-138 2 -229.5 103t-91.5 264zM241 1113q0 -129 52 -206t136 -78q73 0 130 31.5t91 85.5t51.5 120t17.5 140q0 133 -48 213 t-142 79q-89 -1 -156.5 -60t-99.5 -145t-32 -180z" />
<glyph unicode="&#xbb;" horiz-adv-x="1878" d="M226 241l556 383l-452 377l53 85l583 -399l-16 -120l-695 -415zM902 241l556 383l-452 377l53 85l583 -399l-16 -120l-695 -415z" />
<glyph unicode="&#xbc;" horiz-adv-x="2513" d="M283 1464q98 25 230.5 86.5t173.5 94.5l56 -17l-138 -992h-142l115 819q-8 -6 -69.5 -24t-136.5 -38.5t-84 -23.5zM694 0l681 1530h123l-681 -1530h-123zM1291 245l610 867h38l101 -78l-485 -628l-98 -126l404 12l39 280l155 18l-40 -293l263 8l-15 -134h-265l-47 -348 h-156l49 348h-525z" />
<glyph unicode="&#xbd;" horiz-adv-x="2513" d="M283 1464q98 25 230.5 86.5t173.5 94.5l56 -17l-138 -992h-142l115 819q-8 -6 -69.5 -24t-136.5 -38.5t-84 -23.5zM694 0l681 1530h123l-681 -1530h-123zM1370 17q54 31 73.5 42t86 51t102.5 64t100 69t102 78.5t86.5 80t75 86t45.5 84t19 85.5q0 85 -60 131.5t-163 46.5 q-188 0 -335 -152l-54 72q52 72 162.5 133.5t240.5 63.5q86 1 156 -22.5t112 -62t64.5 -82.5t22.5 -88q0 -58 -18.5 -114.5t-41 -99.5t-75.5 -96t-85.5 -83t-110.5 -83t-111 -74t-124 -77q-33 -21 -50 -31l602 25l-5 -122h-782z" />
<glyph unicode="&#xbe;" horiz-adv-x="2513" d="M122 602l14 84q50 -27 122 -41.5t129 -13.5q60 0 119 13.5t113 41t88.5 77t36.5 114.5q4 75 -49 127.5t-148 53.5q-9 -3 -89 -22.5t-94 -23.5l16 111q62 15 112 31.5t99 40.5t81.5 52.5t53 67.5t20.5 85q0 139 -187 136q-148 -3 -294 -100l-35 87q175 121 385 121 q141 0 222 -62t78 -154q-3 -104 -76.5 -181t-188.5 -120q59 0 105.5 -17t73.5 -43t44.5 -59.5t23.5 -64t5 -59.5q-3 -87 -48.5 -156.5t-117.5 -111.5t-157.5 -63.5t-175.5 -21.5q-62 0 -145 18.5t-136 52.5zM730 0l681 1530h123l-681 -1530h-123zM1291 245l610 867h38 l101 -78l-485 -628l-98 -126l404 12l39 280l155 18l-40 -293l263 8l-15 -134h-265l-47 -348h-156l49 348h-525z" />
<glyph unicode="&#xbf;" horiz-adv-x="1028" d="M92 85q0 76 24 139t63.5 105t90 79.5t103.5 63.5t103.5 55.5t90 57t63.5 67t24 85.5q0 52 -48 169l98 38l14 -1q35 -35 59 -95t24 -125q0 -88 -70.5 -156.5t-221.5 -148.5q-70 -36 -116.5 -63.5t-93 -70t-56.5 -82.5q-12 -39 -12 -98q0 -89 32 -158t86.5 -109t118.5 -60 t134 -20q113 0 215 39l-22 -109q-21 -22 -82 -37.5t-121 -15.5q-112 0 -200.5 27t-143.5 70.5t-91 104t-50.5 121.5t-14.5 128zM519 1302q1 62 33 95t87 33q39 0 64.5 -25.5t24.5 -67.5q-1 -54 -34 -90.5t-86 -36.5q-47 0 -69 25.5t-20 66.5z" />
<glyph unicode="&#xc0;" horiz-adv-x="1265" d="M-50 0l745 1530h168l289 -1530h-150l-76 431h-614l-201 -431h-161zM366 546h540l-129 734l-15 115l-55 -119zM510 1903l94 97l273 -349l-56 -50q-76 46 -171 136.5t-140 165.5z" />
<glyph unicode="&#xc1;" horiz-adv-x="1265" d="M-50 0l745 1530h168l289 -1530h-150l-76 431h-614l-201 -431h-161zM366 546h540l-129 734l-15 115l-55 -119zM741 1654l278 346l95 -97q-44 -74 -140.5 -163t-175.5 -137z" />
<glyph unicode="&#xc2;" horiz-adv-x="1265" d="M-50 0l745 1530h168l289 -1530h-150l-76 431h-614l-201 -431h-161zM366 546h540l-129 734l-15 115l-55 -119zM462 1653l340 347h136l205 -348l-73 -53l-219 265l-330 -270z" />
<glyph unicode="&#xc3;" horiz-adv-x="1265" d="M-50 0l745 1530h168l289 -1530h-150l-76 431h-614l-201 -431h-161zM366 546h540l-129 734l-15 115l-55 -119zM435 1798q33 65 111.5 115.5t155.5 50.5q40 0 74 -15t58 -37t46 -44t47 -37t52 -15q12 0 23.5 2.5t20.5 5.5t19 10t16.5 11.5t16 14.5t14 14.5t13.5 17t11 15.5 t10.5 16t9.5 14l66 -70q-25 -71 -97.5 -122.5t-151.5 -51.5q-43 0 -78 15t-58.5 36.5t-45.5 43t-49 36.5t-57 16q-17 0 -31.5 -3t-29 -11.5t-23.5 -13t-23 -19.5t-18 -19t-19 -22t-16 -19z" />
<glyph unicode="&#xc4;" horiz-adv-x="1265" d="M-50 0l745 1530h168l289 -1530h-150l-76 431h-614l-201 -431h-161zM366 546h540l-129 734l-15 115l-55 -119zM503 1819q3 47 37 81.5t73 34.5q44 0 69 -26.5t23 -68.5q-3 -49 -37.5 -84t-79.5 -35q-37 0 -62 28t-23 70zM922 1819q1 47 36.5 81.5t75.5 34.5q44 0 69 -26.5 t22 -68.5q-3 -50 -37 -84.5t-80 -34.5q-37 0 -62 27.5t-24 70.5z" />
<glyph unicode="&#xc5;" horiz-adv-x="1265" d="M-50 0l727 1494q-87 21 -133 81t-46 153q0 68 31 122t81.5 85.5t109 48t120.5 16.5q125 0 197.5 -67t72.5 -184q0 -108 -66.5 -173t-173.5 -85l282 -1491h-150l-76 431h-614l-201 -431h-161zM366 546h540l-129 734l-15 115l-55 -119zM605 1723q0 -68 49.5 -113t128.5 -45 q218 0 218 197q0 69 -47 111.5t-126 42.5q-42 0 -79 -9.5t-70.5 -30.5t-53.5 -60t-20 -93z" />
<glyph unicode="&#xc6;" horiz-adv-x="1781" d="M-107 0l806 1436l-298 17l11 77h1305l-6 -120l-614 7l-74 -579l475 6l-9 -127l-479 11l-78 -614l737 13l-11 -127h-890l58 459h-520l-251 -459h-162zM370 575h470l107 845l-111 5z" />
<glyph unicode="&#xc7;" horiz-adv-x="1141" d="M110 627q-4 201 50 374t150 292t229 186t285 67q132 0 272 -46l51 -16l-53 -126q-3 1 -23.5 10.5t-32 14t-37.5 13t-49.5 13t-59.5 8t-74 3.5q-113 0 -208 -47.5t-158.5 -126t-107.5 -180t-63 -209.5t-17 -215q2 -112 25 -206t67.5 -169.5t119.5 -118.5t173 -43 q111 0 212 34t154 72l23 -128q-133 -83 -343 -95q28 -69 28 -167q0 -78 -20.5 -134.5t-58 -88.5t-83 -46.5t-101.5 -14.5q-41 0 -85.5 8.5t-60.5 20.5l20 115q34 -18 88 -18q170 0 170 193q0 79 -8 130q-102 6 -183.5 46t-134.5 101.5t-88 144.5t-50.5 169t-17.5 180z" />
<glyph unicode="&#xc8;" horiz-adv-x="1138" d="M121 0l193 1530h756l-6 -120l-614 7l-73 -579l474 6l-9 -127l-479 11l-78 -614l737 13l-11 -127h-890zM428 1903l94 97l273 -349l-56 -50q-76 46 -171 136.5t-140 165.5z" />
<glyph unicode="&#xc9;" horiz-adv-x="1138" d="M121 0l193 1530h756l-6 -120l-614 7l-73 -579l474 6l-9 -127l-479 11l-78 -614l737 13l-11 -127h-890zM659 1654l278 346l95 -97q-44 -74 -140.5 -163t-175.5 -137z" />
<glyph unicode="&#xca;" horiz-adv-x="1138" d="M121 0l193 1530h756l-6 -120l-614 7l-73 -579l474 6l-9 -127l-479 11l-78 -614l737 13l-11 -127h-890zM380 1653l340 347h136l205 -348l-73 -53l-219 265l-330 -270z" />
<glyph unicode="&#xcb;" horiz-adv-x="1138" d="M121 0l193 1530h756l-6 -120l-614 7l-73 -579l474 6l-9 -127l-479 11l-78 -614l737 13l-11 -127h-890zM420 1819q3 47 37 81.5t73 34.5q44 0 69 -26.5t23 -68.5q-3 -49 -37.5 -84t-79.5 -35q-37 0 -62 28t-23 70zM839 1819q1 47 36.5 81.5t75.5 34.5q44 0 69 -26.5 t22 -68.5q-3 -50 -37 -84.5t-80 -34.5q-37 0 -62 27.5t-24 70.5z" />
<glyph unicode="&#xcc;" horiz-adv-x="572" d="M145 0l193 1530h151l-193 -1530h-151zM146 1903l94 97l273 -349l-56 -50q-76 46 -171 136.5t-140 165.5z" />
<glyph unicode="&#xcd;" horiz-adv-x="572" d="M145 0l193 1530h151l-193 -1530h-151zM377 1654l278 346l95 -97q-44 -74 -140.5 -163t-175.5 -137z" />
<glyph unicode="&#xce;" horiz-adv-x="572" d="M98 1653l340 347h136l205 -348l-73 -53l-219 265l-330 -270zM145 0l193 1530h151l-193 -1530h-151z" />
<glyph unicode="&#xcf;" horiz-adv-x="572" d="M139 1819q3 47 37 81.5t73 34.5q44 0 69 -26.5t23 -68.5q-3 -49 -37.5 -84t-79.5 -35q-37 0 -62 28t-23 70zM145 0l193 1530h151l-193 -1530h-151zM558 1819q1 47 36.5 81.5t75.5 34.5q44 0 69 -26.5t22 -68.5q-3 -50 -37 -84.5t-80 -34.5q-37 0 -62 27.5t-24 70.5z" />
<glyph unicode="&#xd0;" horiz-adv-x="1376" d="M52 733l12 100h162l88 698h87q46 0 157 8t164 8q149 0 260.5 -45t179 -128.5t101 -195.5t35.5 -255q3 -264 -92 -479.5t-274.5 -340t-409.5 -118.5q-64 2 -113 7q-101 9 -211 9h-77l92 732h-161zM287 126q163 -29 271 -26q114 3 211 49.5t165.5 124.5t116.5 181t70 219 t21 237q-4 276 -111 400t-352 124q-95 0 -230 -19l-74 -583h428l-12 -100h-428z" />
<glyph unicode="&#xd1;" horiz-adv-x="1402" d="M121 0l193 1530h158l491 -1127l72 -207l21 238l134 1096h143l-193 -1530h-149l-494 1122l-72 239l-29 -288l-134 -1073h-141zM498 1798q33 65 111.5 115.5t155.5 50.5q40 0 74 -15t58 -37t46 -44t47 -37t52 -15q12 0 23.5 2.5t20.5 5.5t19 10t16.5 11.5t16 14.5t14 14.5 t13.5 17t11 15.5t10.5 16t9.5 14l66 -70q-25 -71 -97.5 -122.5t-151.5 -51.5q-43 0 -78 15t-58.5 36.5t-45.5 43t-49 36.5t-57 16q-17 0 -31.5 -3t-29 -11.5t-23.5 -13t-23 -19.5t-18 -19t-19 -22t-16 -19z" />
<glyph unicode="&#xd2;" horiz-adv-x="1378" d="M112 613q-5 261 86 475.5t253.5 336.5t361.5 122q117 0 210 -49.5t152 -136.5t91 -200t34 -245q3 -193 -47 -365t-141 -297t-223 -198t-284 -73q-154 0 -266 83.5t-167.5 224t-59.5 322.5zM269 643q4 -272 96 -408t264 -136q150 0 270 107.5t184 288t60 393.5 q-9 539 -354 539q-149 0 -270.5 -108.5t-187 -288t-62.5 -387.5zM550 1903l94 97l273 -349l-56 -50q-76 46 -171 136.5t-140 165.5z" />
<glyph unicode="&#xd3;" horiz-adv-x="1378" d="M112 613q-5 261 86 475.5t253.5 336.5t361.5 122q117 0 210 -49.5t152 -136.5t91 -200t34 -245q3 -193 -47 -365t-141 -297t-223 -198t-284 -73q-154 0 -266 83.5t-167.5 224t-59.5 322.5zM269 643q4 -272 96 -408t264 -136q150 0 270 107.5t184 288t60 393.5 q-9 539 -354 539q-149 0 -270.5 -108.5t-187 -288t-62.5 -387.5zM781 1654l278 346l95 -97q-44 -74 -140.5 -163t-175.5 -137z" />
<glyph unicode="&#xd4;" horiz-adv-x="1378" d="M112 613q-5 261 86 475.5t253.5 336.5t361.5 122q117 0 210 -49.5t152 -136.5t91 -200t34 -245q3 -193 -47 -365t-141 -297t-223 -198t-284 -73q-154 0 -266 83.5t-167.5 224t-59.5 322.5zM269 643q4 -272 96 -408t264 -136q150 0 270 107.5t184 288t60 393.5 q-9 539 -354 539q-149 0 -270.5 -108.5t-187 -288t-62.5 -387.5zM502 1653l340 347h136l205 -348l-73 -53l-219 265l-330 -270z" />
<glyph unicode="&#xd5;" horiz-adv-x="1378" d="M112 613q-5 261 86 475.5t253.5 336.5t361.5 122q117 0 210 -49.5t152 -136.5t91 -200t34 -245q3 -193 -47 -365t-141 -297t-223 -198t-284 -73q-154 0 -266 83.5t-167.5 224t-59.5 322.5zM269 643q4 -272 96 -408t264 -136q150 0 270 107.5t184 288t60 393.5 q-9 539 -354 539q-149 0 -270.5 -108.5t-187 -288t-62.5 -387.5zM474 1798q33 65 111.5 115.5t155.5 50.5q40 0 74 -15t58 -37t46 -44t47 -37t52 -15q12 0 23.5 2.5t20.5 5.5t19 10t16.5 11.5t16 14.5t14 14.5t13.5 17t11 15.5t10.5 16t9.5 14l66 -70q-25 -71 -97.5 -122.5 t-151.5 -51.5q-43 0 -78 15t-58.5 36.5t-45.5 43t-49 36.5t-57 16q-17 0 -31.5 -3t-29 -11.5t-23.5 -13t-23 -19.5t-18 -19t-19 -22t-16 -19z" />
<glyph unicode="&#xd6;" horiz-adv-x="1378" d="M112 613q-5 261 86 475.5t253.5 336.5t361.5 122q117 0 210 -49.5t152 -136.5t91 -200t34 -245q3 -193 -47 -365t-141 -297t-223 -198t-284 -73q-154 0 -266 83.5t-167.5 224t-59.5 322.5zM269 643q4 -272 96 -408t264 -136q150 0 270 107.5t184 288t60 393.5 q-9 539 -354 539q-149 0 -270.5 -108.5t-187 -288t-62.5 -387.5zM542 1819q3 47 37 81.5t73 34.5q44 0 69 -26.5t23 -68.5q-3 -49 -37.5 -84t-79.5 -35q-37 0 -62 28t-23 70zM961 1819q1 47 36.5 81.5t75.5 34.5q44 0 69 -26.5t22 -68.5q-3 -50 -37 -84.5t-80 -34.5 q-37 0 -62 27.5t-24 70.5z" />
<glyph unicode="&#xd7;" horiz-adv-x="1370" d="M244 423l393 342l-309 339l101 95l293 -358l382 363l79 -94l-393 -346l310 -340l-101 -95l-294 359l-382 -360z" />
<glyph unicode="&#xd8;" horiz-adv-x="1378" d="M55 -83l178 261q-116 168 -121 436q-5 261 86 475.5t253.5 336.5t361.5 122q167 0 285 -102l144 213l70 -38l-158 -232q141 -174 146 -472q3 -193 -47 -365t-141 -297t-223 -198t-284 -73q-193 0 -320 130l-160 -236zM269 644q3 -210 59 -340l687 1032q-84 92 -226 92 q-149 0 -270.5 -108.5t-187 -288t-62.5 -387.5zM372 226q92 -126 257 -126q150 0 270 107.5t184 288t60 393.5q-5 243 -78 378z" />
<glyph unicode="&#xd9;" horiz-adv-x="1360" d="M154 422q-1 60 12 171l119 937h150l-115 -911q-13 -108 -12 -191q3 -154 82 -238t233 -84q188 0 292.5 124t141.5 410l112 890h147l-114 -903q-45 -346 -190 -495t-410 -149q-216 0 -330 114.5t-118 324.5zM531 1903l94 97l273 -349l-56 -50q-76 46 -171 136.5 t-140 165.5z" />
<glyph unicode="&#xda;" horiz-adv-x="1360" d="M154 422q-1 60 12 171l119 937h150l-115 -911q-13 -108 -12 -191q3 -154 82 -238t233 -84q188 0 292.5 124t141.5 410l112 890h147l-114 -903q-45 -346 -190 -495t-410 -149q-216 0 -330 114.5t-118 324.5zM762 1654l278 346l95 -97q-44 -74 -140.5 -163t-175.5 -137z " />
<glyph unicode="&#xdb;" horiz-adv-x="1360" d="M154 422q-1 60 12 171l119 937h150l-115 -911q-13 -108 -12 -191q3 -154 82 -238t233 -84q188 0 292.5 124t141.5 410l112 890h147l-114 -903q-45 -346 -190 -495t-410 -149q-216 0 -330 114.5t-118 324.5zM483 1653l340 347h136l205 -348l-73 -53l-219 265l-330 -270z " />
<glyph unicode="&#xdc;" horiz-adv-x="1360" d="M154 422q-1 60 12 171l119 937h150l-115 -911q-13 -108 -12 -191q3 -154 82 -238t233 -84q188 0 292.5 124t141.5 410l112 890h147l-114 -903q-45 -346 -190 -495t-410 -149q-216 0 -330 114.5t-118 324.5zM523 1819q3 47 37 81.5t73 34.5q44 0 69 -26.5t23 -68.5 q-3 -49 -37.5 -84t-79.5 -35q-37 0 -62 28t-23 70zM942 1819q1 47 36.5 81.5t75.5 34.5q44 0 69 -26.5t22 -68.5q-3 -50 -37 -84.5t-80 -34.5q-37 0 -62 27.5t-24 70.5z" />
<glyph unicode="&#xdd;" horiz-adv-x="1083" d="M105 1530h161l261 -710l41 -103l55 102l428 711h162l-592 -945l-75 -585h-144l76 585zM629 1654l278 346l95 -97q-44 -74 -140.5 -163t-175.5 -137z" />
<glyph unicode="&#xde;" horiz-adv-x="1195" d="M121 0l193 1530h150l-33 -264q18 1 72 5.5t95 7t78 2.5q219 0 333.5 -99.5t116.5 -294.5q2 -182 -75.5 -319.5t-217.5 -209.5t-323 -72q-120 0 -202 11l-37 -297h-150zM324 419q84 -15 191 -15q223 2 339.5 123.5t119.5 346.5q2 140 -76.5 216.5t-245.5 76.5 q-38 0 -116.5 -6.5t-119.5 -13.5z" />
<glyph unicode="&#xdf;" horiz-adv-x="1180" d="M85 3l117 926q16 125 45.5 225.5t65 168t82.5 117.5t91.5 78t99 44t97.5 21t95 5q141 0 225.5 -75t84.5 -212q0 -74 -27.5 -138t-66.5 -108t-78 -81.5t-66.5 -75.5t-27.5 -74q0 -20 12 -44t26.5 -42.5t43 -52.5t44.5 -56q37 -51 59.5 -88t44 -102t21.5 -131 q0 -148 -106.5 -236t-287.5 -88q-70 0 -142 16.5t-108 36.5l20 144q33 -30 92 -55.5t126 -24.5q126 0 187.5 46.5t61.5 153.5q0 114 -97 249q-41 50 -65.5 82.5t-50 83.5t-25.5 88q0 58 22 97.5t68 89.5q84 86 125 153t41 152q0 79 -49 131.5t-149 52.5q-57 0 -103 -14 t-92.5 -53t-82 -104t-65.5 -172.5t-50 -252.5l-110 -881h-148z" />
<glyph unicode="&#xe0;" horiz-adv-x="1130" d="M81 415q0 97 23 197.5t74 198.5t123 174.5t179 123.5t234 47q97 0 214 -37l113 37l-157 -1156h-131l19 202v3q-63 -91 -161 -156t-212 -65q-158 0 -238 115.5t-80 315.5zM235 433q0 -333 189 -333q59 0 118.5 27t106.5 70.5t82 87t60 87.5l20 185l64 451q-84 38 -185 38 q-87 0 -162.5 -37.5t-128.5 -100t-90.5 -142.5t-55.5 -165t-18 -168zM355 1596l115 104l294 -397l-65 -55q-76 52 -189 164.5t-155 183.5z" />
<glyph unicode="&#xe1;" horiz-adv-x="1130" d="M81 415q0 97 23 197.5t74 198.5t123 174.5t179 123.5t234 47q97 0 214 -37l113 37l-157 -1156h-131l19 202v3q-63 -91 -161 -156t-212 -65q-158 0 -238 115.5t-80 315.5zM235 433q0 -333 189 -333q59 0 118.5 27t106.5 70.5t82 87t60 87.5l20 185l64 451q-84 38 -185 38 q-87 0 -162.5 -37.5t-128.5 -100t-90.5 -142.5t-55.5 -165t-18 -168zM617 1303l308 400l115 -104q-32 -56 -153.5 -178t-206.5 -173z" />
<glyph unicode="&#xe2;" horiz-adv-x="1130" d="M81 415q0 97 23 197.5t74 198.5t123 174.5t179 123.5t234 47q97 0 214 -37l113 37l-157 -1156h-131l19 202v3q-63 -91 -161 -156t-212 -65q-158 0 -238 115.5t-80 315.5zM235 433q0 -333 189 -333q59 0 118.5 27t106.5 70.5t82 87t60 87.5l20 185l64 451q-84 38 -185 38 q-87 0 -162.5 -37.5t-128.5 -100t-90.5 -142.5t-55.5 -165t-18 -168zM357 1273l343 376h137l203 -377l-73 -53l-218 294l-333 -299z" />
<glyph unicode="&#xe3;" horiz-adv-x="1130" d="M81 415q0 97 23 197.5t74 198.5t123 174.5t179 123.5t234 47q97 0 214 -37l113 37l-157 -1156h-131l19 202v3q-63 -91 -161 -156t-212 -65q-158 0 -238 115.5t-80 315.5zM235 433q0 -333 189 -333q59 0 118.5 27t106.5 70.5t82 87t60 87.5l20 185l64 451q-84 38 -185 38 q-87 0 -162.5 -37.5t-128.5 -100t-90.5 -142.5t-55.5 -165t-18 -168zM337 1480q33 64 110.5 115t152.5 51q40 0 75 -15t59 -36t46 -42t47.5 -36t52.5 -15q17 0 32 3.5t28.5 12.5t23 15.5t22.5 21.5t17.5 20.5t17 23.5t14.5 20l66 -70q-25 -70 -98 -120.5t-152 -50.5 q-43 0 -78 14.5t-59 36t-45.5 42.5t-49 36t-58.5 16q-18 0 -35.5 -6t-29 -11.5t-28 -21t-22.5 -21.5t-22.5 -26t-18.5 -22z" />
<glyph unicode="&#xe4;" horiz-adv-x="1130" d="M81 415q0 97 23 197.5t74 198.5t123 174.5t179 123.5t234 47q97 0 214 -37l113 37l-157 -1156h-131l19 202v3q-63 -91 -161 -156t-212 -65q-158 0 -238 115.5t-80 315.5zM235 433q0 -333 189 -333q59 0 118.5 27t106.5 70.5t82 87t60 87.5l20 185l64 451q-84 38 -185 38 q-87 0 -162.5 -37.5t-128.5 -100t-90.5 -142.5t-55.5 -165t-18 -168zM422 1507q2 48 35.5 81.5t76.5 33.5t68 -26.5t23 -67.5q-3 -50 -37 -84.5t-80 -34.5q-38 0 -63.5 28t-22.5 70zM843 1507q2 48 35.5 81.5t76.5 33.5t68 -26.5t23 -67.5q-3 -50 -37 -84.5t-80 -34.5 q-38 0 -63.5 28t-22.5 70z" />
<glyph unicode="&#xe5;" horiz-adv-x="1130" d="M81 415q0 97 23 197.5t74 198.5t123 174.5t179 123.5t234 47q97 0 214 -37l113 37l-157 -1156h-131l19 202v3q-63 -91 -161 -156t-212 -65q-158 0 -238 115.5t-80 315.5zM235 433q0 -333 189 -333q59 0 118.5 27t106.5 70.5t82 87t60 87.5l20 185l64 451q-84 38 -185 38 q-87 0 -162.5 -37.5t-128.5 -100t-90.5 -142.5t-55.5 -165t-18 -168zM456 1504q0 68 31 122t81 87t109.5 50t120.5 17q125 0 197.5 -66t72.5 -184q0 -89 -48 -152.5t-121.5 -92t-163.5 -28.5q-133 0 -206 65t-73 182zM563 1499q0 -69 49.5 -114t128.5 -45q45 0 82 10 t68.5 32t49.5 63t18 98q0 69 -47 111t-126 42q-41 0 -78.5 -10t-71 -31.5t-53.5 -61.5t-20 -94z" />
<glyph unicode="&#xe6;" horiz-adv-x="1624" d="M81 415q0 97 23 197.5t74 198.5t123 174.5t179 123.5t234 47q157 0 284 -78q125 78 275 78q137 0 208 -69.5t71 -180.5q0 -79 -36.5 -148t-97.5 -117t-135 -86t-156 -61t-153.5 -35.5t-133.5 -15.5q-2 -50 2.5 -95.5t21 -91.5t44 -79t74 -54t107.5 -21q84 0 174.5 43 t173.5 128l43 -87q-53 -73 -165 -137.5t-243 -64.5q-151 0 -242.5 77t-126.5 204q-146 -281 -345 -281q-277 0 -277 431zM235 433q0 -333 156 -333q140 0 293 282q-2 39 -1 59q4 165 58.5 308.5t149.5 241.5q-99 55 -201 55q-87 0 -162.5 -37.5t-128.5 -100t-90.5 -142.5 t-55.5 -165t-18 -168zM845 550q87 3 182.5 28t180.5 67t140 107.5t55 140.5q0 76 -42.5 113t-119.5 37q-107 0 -196.5 -77t-139 -187.5t-60.5 -228.5z" />
<glyph unicode="&#xe7;" horiz-adv-x="911" d="M89 433q0 96 23 196t70.5 194.5t114 168.5t162 119t205.5 45q138 0 219 -41l-39 -128q-71 57 -194 57q-107 0 -201.5 -81.5t-151 -219.5t-56.5 -295q0 -350 242 -350q80 0 146.5 37.5t139.5 109.5l50 -82q-43 -57 -121 -109t-178 -66q29 -68 29 -169q0 -78 -20.5 -134.5 t-58 -88.5t-83 -46.5t-101.5 -14.5q-41 0 -85.5 8.5t-60.5 20.5l20 115q34 -18 88 -18q170 0 170 193q0 74 -9 133q-155 17 -237.5 134t-82.5 312z" />
<glyph unicode="&#xe8;" horiz-adv-x="1031" d="M90 441q4 148 49 279.5t121 227.5t185 152t235 56q137 0 208 -69.5t71 -180.5q0 -79 -36.5 -148t-97.5 -117t-135 -86t-156 -61t-153.5 -35.5t-133.5 -15.5q-3 -50 2 -95.5t21.5 -91.5t44 -79t74 -54t107.5 -21q179 0 348 170l43 -86q-53 -73 -165 -137.5t-243 -64.5 q-84 0 -151.5 26t-112 70t-74 103t-41.5 123.5t-10 134.5zM252 550q87 3 182.5 28t180.5 67t140 107.5t55 140.5q0 76 -42.5 113t-119.5 37q-80 0 -152 -44.5t-122 -116.5t-82 -158.5t-40 -173.5zM287 1597l115 104l294 -397l-65 -55q-76 52 -189 164.5t-155 183.5z" />
<glyph unicode="&#xe9;" horiz-adv-x="1031" d="M90 441q4 148 49 279.5t121 227.5t185 152t235 56q137 0 208 -69.5t71 -180.5q0 -79 -36.5 -148t-97.5 -117t-135 -86t-156 -61t-153.5 -35.5t-133.5 -15.5q-3 -50 2 -95.5t21.5 -91.5t44 -79t74 -54t107.5 -21q179 0 348 170l43 -86q-53 -73 -165 -137.5t-243 -64.5 q-84 0 -151.5 26t-112 70t-74 103t-41.5 123.5t-10 134.5zM252 550q87 3 182.5 28t180.5 67t140 107.5t55 140.5q0 76 -42.5 113t-119.5 37q-80 0 -152 -44.5t-122 -116.5t-82 -158.5t-40 -173.5zM549 1304l308 400l115 -104q-32 -56 -153.5 -178t-206.5 -173z" />
<glyph unicode="&#xea;" horiz-adv-x="1031" d="M90 441q4 148 49 279.5t121 227.5t185 152t235 56q137 0 208 -69.5t71 -180.5q0 -79 -36.5 -148t-97.5 -117t-135 -86t-156 -61t-153.5 -35.5t-133.5 -15.5q-3 -50 2 -95.5t21.5 -91.5t44 -79t74 -54t107.5 -21q179 0 348 170l43 -86q-53 -73 -165 -137.5t-243 -64.5 q-84 0 -151.5 26t-112 70t-74 103t-41.5 123.5t-10 134.5zM252 550q87 3 182.5 28t180.5 67t140 107.5t55 140.5q0 76 -42.5 113t-119.5 37q-80 0 -152 -44.5t-122 -116.5t-82 -158.5t-40 -173.5zM290 1274l343 376h137l203 -377l-73 -53l-218 294l-333 -299z" />
<glyph unicode="&#xeb;" horiz-adv-x="1031" d="M90 441q4 148 49 279.5t121 227.5t185 152t235 56q137 0 208 -69.5t71 -180.5q0 -79 -36.5 -148t-97.5 -117t-135 -86t-156 -61t-153.5 -35.5t-133.5 -15.5q-3 -50 2 -95.5t21.5 -91.5t44 -79t74 -54t107.5 -21q179 0 348 170l43 -86q-53 -73 -165 -137.5t-243 -64.5 q-84 0 -151.5 26t-112 70t-74 103t-41.5 123.5t-10 134.5zM252 550q87 3 182.5 28t180.5 67t140 107.5t55 140.5q0 76 -42.5 113t-119.5 37q-80 0 -152 -44.5t-122 -116.5t-82 -158.5t-40 -173.5zM355 1508q2 48 35.5 81.5t76.5 33.5t68 -26.5t23 -67.5q-3 -50 -37 -84.5 t-80 -34.5q-38 0 -63.5 28t-22.5 70zM776 1508q2 48 35.5 81.5t76.5 33.5t68 -26.5t23 -67.5q-3 -50 -37 -84.5t-80 -34.5q-38 0 -63.5 28t-22.5 70z" />
<glyph unicode="&#xec;" horiz-adv-x="564" d="M38 1597l115 104l294 -397l-65 -55q-76 52 -189 164.5t-155 183.5zM133 0l154 1144h149l-155 -1144h-148z" />
<glyph unicode="&#xed;" horiz-adv-x="564" d="M133 0l154 1144h149l-155 -1144h-148zM300 1304l308 400l115 -104q-32 -56 -153.5 -178t-206.5 -173z" />
<glyph unicode="&#xee;" horiz-adv-x="564" d="M40 1274l343 376h137l203 -377l-73 -53l-218 294l-333 -299zM133 0l154 1144h149l-155 -1144h-148z" />
<glyph unicode="&#xef;" horiz-adv-x="564" d="M105 1508q2 48 35.5 81.5t76.5 33.5t68 -26.5t23 -67.5q-3 -50 -37 -84.5t-80 -34.5q-38 0 -63.5 28t-22.5 70zM133 0l154 1144h149l-155 -1144h-148zM526 1508q2 48 35.5 81.5t76.5 33.5t68 -26.5t23 -67.5q-3 -50 -37 -84.5t-80 -34.5q-38 0 -63.5 28t-22.5 70z" />
<glyph unicode="&#xf0;" horiz-adv-x="1162" d="M89 437q0 164 47 302t125 227.5t177.5 139t206.5 49.5q89 0 165 -29.5t111 -84.5q-21 144 -78 248t-163 198l-160 -179l-82 68l163 172q-147 105 -253 129l34 92q57 -13 139 -52t152 -85q28 30 67.5 76t65.5 77l25 31l76 -69q-101 -116 -152 -175l7 -6 q156 -144 229.5 -316t73.5 -382q0 -181 -38 -340t-109 -281t-181.5 -193t-247.5 -71q-79 0 -145.5 26.5t-112.5 71.5t-79 104t-48 123t-15 129zM249 429q0 -140 70 -240.5t191 -100.5q94 0 176 71.5t135 190.5t73 265q22 185 19 223q-3 25 -20.5 57.5t-48.5 68t-85 59.5 t-119 24q-119 0 -210 -89t-136 -228t-45 -301z" />
<glyph unicode="&#xf1;" horiz-adv-x="1194" d="M93 3l154 1137h141l-29 -265q95 121 222 201t249 80q121 0 176 -69.5t54 -214.5q-1 -86 -42 -359q-9 -64 -39 -260.5t-38 -249.5h-149q10 75 41.5 281.5t34.5 227.5q41 275 41 351q0 83 -31.5 119t-108.5 36q-96 0 -222 -91t-209 -211l-97 -713h-148zM293 1481 q33 64 110.5 115t152.5 51q40 0 75 -15t59 -36t46 -42t47.5 -36t52.5 -15q17 0 32 3.5t28.5 12.5t23 15.5t22.5 21.5t17.5 20.5t17 23.5t14.5 20l66 -70q-25 -70 -98 -120.5t-152 -50.5q-43 0 -78 14.5t-59 36t-45.5 42.5t-49 36t-58.5 16q-18 0 -35.5 -6t-29 -11.5t-28 -21 t-22.5 -21.5t-22.5 -26t-18.5 -22z" />
<glyph unicode="&#xf2;" horiz-adv-x="1135" d="M98 444q-3 182 67 344.5t201.5 265t292.5 102.5q184 0 278 -119t98 -341q2 -134 -38 -263t-111.5 -228.5t-177.5 -160t-227 -60.5q-185 0 -282 119.5t-101 340.5zM252 447q2 -170 65.5 -260t187.5 -90q90 0 164 55t119 143t69 191.5t22 206.5q-5 351 -244 351 q-91 0 -166.5 -55t-122 -143t-71.5 -192t-23 -207zM309 1597l115 104l294 -397l-65 -55q-76 52 -189 164.5t-155 183.5z" />
<glyph unicode="&#xf3;" horiz-adv-x="1135" d="M98 444q-3 182 67 344.5t201.5 265t292.5 102.5q184 0 278 -119t98 -341q2 -134 -38 -263t-111.5 -228.5t-177.5 -160t-227 -60.5q-185 0 -282 119.5t-101 340.5zM252 447q2 -170 65.5 -260t187.5 -90q90 0 164 55t119 143t69 191.5t22 206.5q-5 351 -244 351 q-91 0 -166.5 -55t-122 -143t-71.5 -192t-23 -207zM571 1304l308 400l115 -104q-32 -56 -153.5 -178t-206.5 -173z" />
<glyph unicode="&#xf4;" horiz-adv-x="1135" d="M98 444q-3 182 67 344.5t201.5 265t292.5 102.5q184 0 278 -119t98 -341q2 -134 -38 -263t-111.5 -228.5t-177.5 -160t-227 -60.5q-185 0 -282 119.5t-101 340.5zM252 447q2 -170 65.5 -260t187.5 -90q90 0 164 55t119 143t69 191.5t22 206.5q-5 351 -244 351 q-91 0 -166.5 -55t-122 -143t-71.5 -192t-23 -207zM311 1274l343 376h137l203 -377l-73 -53l-218 294l-333 -299z" />
<glyph unicode="&#xf5;" horiz-adv-x="1135" d="M98 444q-3 182 67 344.5t201.5 265t292.5 102.5q184 0 278 -119t98 -341q2 -134 -38 -263t-111.5 -228.5t-177.5 -160t-227 -60.5q-185 0 -282 119.5t-101 340.5zM252 447q2 -170 65.5 -260t187.5 -90q90 0 164 55t119 143t69 191.5t22 206.5q-5 351 -244 351 q-91 0 -166.5 -55t-122 -143t-71.5 -192t-23 -207zM290 1481q33 64 110.5 115t152.5 51q40 0 75 -15t59 -36t46 -42t47.5 -36t52.5 -15q17 0 32 3.5t28.5 12.5t23 15.5t22.5 21.5t17.5 20.5t17 23.5t14.5 20l66 -70q-25 -70 -98 -120.5t-152 -50.5q-43 0 -78 14.5t-59 36 t-45.5 42.5t-49 36t-58.5 16q-18 0 -35.5 -6t-29 -11.5t-28 -21t-22.5 -21.5t-22.5 -26t-18.5 -22z" />
<glyph unicode="&#xf6;" horiz-adv-x="1135" d="M98 444q-3 182 67 344.5t201.5 265t292.5 102.5q184 0 278 -119t98 -341q2 -134 -38 -263t-111.5 -228.5t-177.5 -160t-227 -60.5q-185 0 -282 119.5t-101 340.5zM252 447q2 -170 65.5 -260t187.5 -90q90 0 164 55t119 143t69 191.5t22 206.5q-5 351 -244 351 q-91 0 -166.5 -55t-122 -143t-71.5 -192t-23 -207zM376 1508q2 48 35.5 81.5t76.5 33.5t68 -26.5t23 -67.5q-3 -50 -37 -84.5t-80 -34.5q-38 0 -63.5 28t-22.5 70zM797 1508q2 48 35.5 81.5t76.5 33.5t68 -26.5t23 -67.5q-3 -50 -37 -84.5t-80 -34.5q-38 0 -63.5 28 t-22.5 70z" />
<glyph unicode="&#xf7;" horiz-adv-x="1338" d="M243 714l14 122h869l-14 -122h-869zM530 379q6 50 47 84t87 34q51 0 73 -27.5t16 -73.5q-6 -53 -45.5 -86t-86.5 -33q-43 0 -70 27t-21 75zM625 1152q6 51 47 84.5t87 33.5q51 0 73.5 -27.5t16.5 -73.5q-6 -53 -46 -86t-87 -33q-43 0 -70 27t-21 75z" />
<glyph unicode="&#xf8;" horiz-adv-x="1134" d="M47 -88l142 206q-88 118 -91 328q-3 182 67 344.5t201.5 265t292.5 102.5q113 0 197 -48l131 188l69 -38l-138 -199q112 -117 117 -363q2 -134 -38 -263t-111.5 -228.5t-177.5 -160t-227 -60.5q-143 0 -237 74l-128 -186zM252 449q2 -122 34 -202l488 756q-55 43 -139 43 q-91 0 -166.5 -55t-122 -143t-71.5 -192t-23 -207zM330 172q64 -73 175 -73q90 0 164 55t119 143t69 191.5t22 206.5q-3 159 -52 245z" />
<glyph unicode="&#xf9;" horiz-adv-x="1173" d="M113 266q0 58 26 268q28 218 85 606h149q-83 -597 -84 -607q-24 -183 -24 -257q0 -95 38 -130t119 -35q93 0 209 91t195 213l95 725h149l-152 -1140h-138l29 262q-87 -121 -204.5 -201t-236.5 -80q-130 0 -192.5 66t-62.5 219zM312 1597l115 104l294 -397l-65 -55 q-76 52 -189 164.5t-155 183.5z" />
<glyph unicode="&#xfa;" horiz-adv-x="1173" d="M113 266q0 58 26 268q28 218 85 606h149q-83 -597 -84 -607q-24 -183 -24 -257q0 -95 38 -130t119 -35q93 0 209 91t195 213l95 725h149l-152 -1140h-138l29 262q-87 -121 -204.5 -201t-236.5 -80q-130 0 -192.5 66t-62.5 219zM574 1304l308 400l115 -104 q-32 -56 -153.5 -178t-206.5 -173z" />
<glyph unicode="&#xfb;" horiz-adv-x="1173" d="M113 266q0 58 26 268q28 218 85 606h149q-83 -597 -84 -607q-24 -183 -24 -257q0 -95 38 -130t119 -35q93 0 209 91t195 213l95 725h149l-152 -1140h-138l29 262q-87 -121 -204.5 -201t-236.5 -80q-130 0 -192.5 66t-62.5 219zM314 1274l343 376h137l203 -377l-73 -53 l-218 294l-333 -299z" />
<glyph unicode="&#xfc;" horiz-adv-x="1173" d="M113 266q0 58 26 268q28 218 85 606h149q-83 -597 -84 -607q-24 -183 -24 -257q0 -95 38 -130t119 -35q93 0 209 91t195 213l95 725h149l-152 -1140h-138l29 262q-87 -121 -204.5 -201t-236.5 -80q-130 0 -192.5 66t-62.5 219zM379 1508q2 48 35.5 81.5t76.5 33.5 t68 -26.5t23 -67.5q-3 -50 -37 -84.5t-80 -34.5q-38 0 -63.5 28t-22.5 70zM800 1508q2 48 35.5 81.5t76.5 33.5t68 -26.5t23 -67.5q-3 -50 -37 -84.5t-80 -34.5q-38 0 -63.5 28t-22.5 70z" />
<glyph unicode="&#xfd;" horiz-adv-x="1048" d="M-200 -472l43 124q2 -1 11.5 -5.5t15 -7t18 -6.5t24 -6.5t28.5 -4.5t35 -2q105 0 206.5 73t223.5 251h-93l-62 355l-127 841h164l109 -841l43 -301q69 116 131 225q233 388 263 782q4 69 2 135h147q6 -55 2 -134q-18 -327 -267 -790q-130 -241 -263 -405 q-28 -36 -45.5 -57t-51.5 -58.5t-61.5 -60.5t-69 -52t-81 -45.5t-91 -28t-104.5 -11.5q-71 0 -150 30zM470 1304l308 400l115 -104q-32 -56 -153.5 -178t-206.5 -173z" />
<glyph unicode="&#xfe;" horiz-adv-x="1159" d="M20 -516l75 518l218 1635h141l-58 -490l-35 -208q65 89 165.5 153t215.5 64q158 0 238 -116t80 -317q0 -97 -24 -197.5t-76 -198t-125 -173.5t-181 -123t-235 -47q-74 0 -177 24l-15 -108l-62 -416h-145zM259 129q83 -35 184 -35q90 0 167.5 39t130.5 102.5t91.5 144 t56 164t17.5 162.5q0 166 -48.5 250t-141.5 84q-58 0 -116.5 -25t-106 -65.5t-83.5 -82t-63 -83.5z" />
<glyph unicode="&#xff;" horiz-adv-x="1048" d="M-200 -472l43 124q2 -1 11.5 -5.5t15 -7t18 -6.5t24 -6.5t28.5 -4.5t35 -2q105 0 206.5 73t223.5 251h-93l-62 355l-127 841h164l109 -841l43 -301q69 116 131 225q233 388 263 782q4 69 2 135h147q6 -55 2 -134q-18 -327 -267 -790q-130 -241 -263 -405 q-28 -36 -45.5 -57t-51.5 -58.5t-61.5 -60.5t-69 -52t-81 -45.5t-91 -28t-104.5 -11.5q-71 0 -150 30zM276 1508q2 48 35.5 81.5t76.5 33.5t68 -26.5t23 -67.5q-3 -50 -37 -84.5t-80 -34.5q-38 0 -63.5 28t-22.5 70zM697 1508q2 48 35.5 81.5t76.5 33.5t68 -26.5t23 -67.5 q-3 -50 -37 -84.5t-80 -34.5q-38 0 -63.5 28t-22.5 70z" />
<glyph unicode="&#x152;" horiz-adv-x="2125" d="M112 613q-5 261 86.5 475.5t255 336.5t364.5 122q170 0 280.5 -98t159.5 -268l44 349h756l-6 -120l-614 7l-73 -579l474 6l-9 -127l-479 11l-78 -614l737 13l-11 -127h-890l39 309q-93 -154 -231 -240t-307 -86q-156 0 -269 83.5t-169 224t-60 322.5zM269 643 q4 -272 96.5 -408t268.5 -136q152 0 273 107.5t185.5 288t61.5 393.5q-9 539 -360 539q-113 0 -212.5 -64t-168.5 -171t-107.5 -250.5t-36.5 -298.5z" />
<glyph unicode="&#x153;" horiz-adv-x="1767" d="M98 443q-2 134 39 262.5t113.5 228.5t180 161t229.5 61q247 0 337 -207q80 98 187 152.5t232 54.5q137 0 208.5 -69.5t71.5 -180.5q0 -94 -52.5 -173.5t-131.5 -129.5t-178.5 -86.5t-186.5 -53t-163 -20.5q-3 -50 2 -95.5t21 -91.5t43.5 -79t74 -54t107.5 -21 q179 0 349 170l42 -86q-53 -73 -165 -137.5t-243 -64.5q-240 0 -338 199q-161 -199 -388 -199q-188 0 -287.5 119t-103.5 340zM252 445q2 -169 67.5 -259t192.5 -90q108 0 188.5 81.5t125.5 211.5q-1 25 0 52q3 151 51 286l-3 47q-28 269 -238 269q-92 0 -168 -55.5 t-122.5 -144t-71 -192.5t-22.5 -206zM988 550q87 3 182.5 28t180.5 67t140 107.5t55 140.5q0 76 -42.5 113t-119.5 37q-81 0 -153 -44.5t-121.5 -116.5t-81.5 -158.5t-40 -173.5z" />
<glyph unicode="&#x178;" horiz-adv-x="1083" d="M105 1530h161l261 -710l41 -103l55 102l428 711h162l-592 -945l-75 -585h-144l76 585zM391 1819q3 47 37 81.5t73 34.5q44 0 69 -26.5t23 -68.5q-3 -49 -37.5 -84t-79.5 -35q-37 0 -62 28t-23 70zM810 1819q1 47 36.5 81.5t75.5 34.5q44 0 69 -26.5t22 -68.5 q-3 -50 -37 -84.5t-80 -34.5q-37 0 -62 27.5t-24 70.5z" />
<glyph unicode="&#x2c6;" horiz-adv-x="795" d="M57 1274l343 376h137l203 -377l-73 -53l-218 294l-333 -299z" />
<glyph unicode="&#x2dc;" horiz-adv-x="815" d="M9 1481q33 64 110.5 115t152.5 51q40 0 75 -15t59 -36t46 -42t47.5 -36t52.5 -15q17 0 32 3.5t28.5 12.5t23 15.5t22.5 21.5t17.5 20.5t17 23.5t14.5 20l66 -70q-25 -70 -98 -120.5t-152 -50.5q-43 0 -78 14.5t-59 36t-45.5 42.5t-49 36t-58.5 16q-18 0 -35.5 -6 t-29 -11.5t-28 -21t-22.5 -21.5t-22.5 -26t-18.5 -22z" />
<glyph unicode="&#x2000;" horiz-adv-x="1000" />
<glyph unicode="&#x2001;" horiz-adv-x="2000" />
<glyph unicode="&#x2002;" horiz-adv-x="1000" />
<glyph unicode="&#x2003;" horiz-adv-x="2000" />
<glyph unicode="&#x2004;" horiz-adv-x="666" />
<glyph unicode="&#x2005;" horiz-adv-x="500" />
<glyph unicode="&#x2006;" horiz-adv-x="333" />
<glyph unicode="&#x2007;" horiz-adv-x="333" />
<glyph unicode="&#x2008;" horiz-adv-x="250" />
<glyph unicode="&#x2009;" horiz-adv-x="400" />
<glyph unicode="&#x200a;" horiz-adv-x="111" />
<glyph unicode="&#x2010;" horiz-adv-x="1266" d="M220 712l14 121h837l-14 -121h-837z" />
<glyph unicode="&#x2011;" horiz-adv-x="1266" d="M220 712l14 121h837l-14 -121h-837z" />
<glyph unicode="&#x2012;" horiz-adv-x="1266" d="M220 712l14 121h837l-14 -121h-837z" />
<glyph unicode="&#x2013;" horiz-adv-x="1535" d="M220 712l23 121h1097l-23 -121h-1097z" />
<glyph unicode="&#x2014;" horiz-adv-x="2028" d="M220 712l22 121h1591l-23 -121h-1590z" />
<glyph unicode="&#x2018;" horiz-adv-x="651" d="M192 1240q0 82 20.5 155.5t51.5 125.5t74.5 97t82.5 72.5t81 49.5l58 -85l-2 -16q-32 -17 -65 -48.5t-64.5 -77t-51.5 -109.5t-20 -134q0 -65 26 -128t76 -98l-4 -31l-93 -87q-65 26 -117.5 118.5t-52.5 195.5z" />
<glyph unicode="&#x2019;" horiz-adv-x="667" d="M278 1002l2 16q32 17 65 48.5t64.5 77t51.5 109.5t20 134q0 65 -26 128t-76 98l4 31l93 87q65 -26 117.5 -118.5t52.5 -195.5q0 -82 -20.5 -155.5t-51.5 -125.5t-74.5 -97t-82.5 -72.5t-81 -49.5z" />
<glyph unicode="&#x201a;" horiz-adv-x="638" d="M138 -437l2 16q32 17 65 48.5t64.5 77t51.5 109.5t20 134q0 65 -26 128t-76 98l4 31l93 87q65 -26 117.5 -118.5t52.5 -195.5q0 -82 -20.5 -155.5t-51.5 -125.5t-74.5 -97t-82.5 -72.5t-81 -49.5z" />
<glyph unicode="&#x201c;" horiz-adv-x="1130" d="M192 1240q0 82 20.5 155.5t51.5 125.5t74.5 97t82.5 72.5t81 49.5l58 -85l-2 -16q-32 -17 -65 -48.5t-64.5 -77t-51.5 -109.5t-20 -134q0 -65 26 -128t76 -98l-4 -31l-93 -87q-65 26 -117.5 118.5t-52.5 195.5zM671 1240q0 82 20.5 155.5t51.5 125.5t74.5 97t82.5 72.5 t81 49.5l58 -85l-2 -16q-32 -17 -65 -48.5t-64.5 -77t-51.5 -109.5t-20 -134q0 -65 26 -128t76 -98l-4 -31l-93 -87q-65 26 -117.5 118.5t-52.5 195.5z" />
<glyph unicode="&#x201d;" horiz-adv-x="1128" d="M311 1002l2 16q32 17 65 48.5t64.5 77t51.5 109.5t20 134q0 65 -26 128t-76 98l4 31l93 87q65 -26 117.5 -118.5t52.5 -195.5q0 -82 -20.5 -155.5t-51.5 -125.5t-74.5 -97t-82.5 -72.5t-81 -49.5zM790 1002l2 16q32 17 65 48.5t64.5 77t51.5 109.5t20 134q0 65 -26 128 t-76 98l4 31l93 87q65 -26 117.5 -118.5t52.5 -195.5q0 -82 -20.5 -155.5t-51.5 -125.5t-74.5 -97t-82.5 -72.5t-81 -49.5z" />
<glyph unicode="&#x201e;" horiz-adv-x="1117" d="M138 -437l2 16q32 17 65 48.5t64.5 77t51.5 109.5t20 134q0 65 -26 128t-76 98l4 31l93 87q65 -26 117.5 -118.5t52.5 -195.5q0 -82 -20.5 -155.5t-51.5 -125.5t-74.5 -97t-82.5 -72.5t-81 -49.5zM617 -437l2 16q32 17 65 48.5t64.5 77t51.5 109.5t20 134q0 65 -26 128 t-76 98l4 31l93 87q65 -26 117.5 -118.5t52.5 -195.5q0 -82 -20.5 -155.5t-51.5 -125.5t-74.5 -97t-82.5 -72.5t-81 -49.5z" />
<glyph unicode="&#x2022;" horiz-adv-x="858" d="M282 693q0 73 58 135.5t137 62.5q59 0 97.5 -37.5t38.5 -95.5q0 -75 -55 -138t-139 -63q-58 0 -97.5 39.5t-39.5 96.5z" />
<glyph unicode="&#x2026;" horiz-adv-x="1509" d="M107 85q7 52 42 85t79 33q52 0 74 -27.5t16 -74.5q-7 -54 -44 -86t-84 -32q-43 0 -66.5 26.5t-16.5 75.5zM610 85q7 52 42 85t79 33q52 0 74 -27.5t16 -74.5q-7 -54 -44 -86t-85 -32q-43 0 -66 26.5t-16 75.5zM1112 85q7 52 42 85t80 33q52 0 73.5 -27.5t15.5 -74.5 q-7 -54 -43.5 -86t-84.5 -32q-43 0 -66.5 26.5t-16.5 75.5z" />
<glyph unicode="&#x202f;" horiz-adv-x="400" />
<glyph unicode="&#x2039;" horiz-adv-x="1190" d="M237 551l16 120l695 415l29 -89l-556 -383l452 -377l-53 -85z" />
<glyph unicode="&#x203a;" horiz-adv-x="1190" d="M193 241l556 383l-452 377l53 85l583 -399l-16 -120l-695 -415z" />
<glyph unicode="&#x205f;" horiz-adv-x="500" />
<glyph unicode="&#x20ac;" horiz-adv-x="1381" d="M26 562l16 108h192q2 132 27 247h-186l16 108h198q79 243 251.5 382t394.5 139q68 0 133 -10t94 -18.5t82 -25.5l-49 -121q-32 23 -112 42t-189 19q-164 0 -278 -107.5t-171 -299.5h583l-15 -108h-594q-22 -112 -25 -247h585l-15 -108h-569q11 -215 92.5 -340t239.5 -125 q210 0 372 118l43 -104q-48 -55 -168.5 -91t-268.5 -36q-90 0 -165.5 32.5t-127.5 87.5t-90 130t-58 156.5t-27 171.5h-211z" />
<glyph unicode="&#x2122;" horiz-adv-x="2111" d="M178 1419l17 111h666l-13 -111h-273l-90 -665l-131 -1l90 666h-266zM917 754l152 776h208l120 -472l38 -147l292 619h218l-32 -776h-133l27 484l14 220l-54 -107l-303 -605h-98l-148 547l-44 167l-31 -174l-102 -532h-124z" />
<glyph unicode="&#x25fc;" horiz-adv-x="1140" d="M0 0v1140h1140v-1140h-1140z" />
</font>
</defs>
</svg>
